VERSION	0.00.00	1.03.00
FES_MODE	0
BPM_DEF	176.000	185.000	185.000	176.000
MET_DEF	4	4
RESOLUTION	384
CLK_DEF	384
COMPATIBLE_CODE	MA2

BPM	0	0	176.000
BPM	9	0	185.000

BRK	3	0	2
HLD	3	0	4	384
TAP	3	96	2
TAP	3	192	1
TAP	3	288	1
HLD	4	0	0	384
TAP	4	192	6
TAP	4	288	6
HLD	5	0	7	192
HLD	5	192	4	192
STR	6	0	3
SCL	6	0	3	96	864	5
SUR	6	0	3	96	864	5
BST	9	0	0
SI_	9	0	0	96	48	4
BST	9	0	7
SI_	9	0	7	96	48	3
TAP	9	192	2
TAP	9	192	5
TAP	9	240	2
TAP	9	240	5
TAP	9	288	2
TAP	9	288	5
TAP	10	0	4
TAP	10	96	4
TAP	10	192	4
TAP	10	288	3
TAP	10	288	5
TAP	11	0	2
TAP	11	96	2
TAP	11	192	1
TAP	11	192	3
TAP	11	288	2
TAP	11	288	4
TAP	12	0	6
TAP	12	96	6
TAP	12	192	5
TAP	12	192	7
STR	12	288	0
SI_	12	288	0	96	48	4
STR	12	288	6
SI_	12	288	6	96	48	3
TAP	13	192	0
TAP	13	192	7
TAP	13	240	0
TAP	13	240	7
TAP	13	288	1
TAP	13	288	6
TAP	14	0	4
HLD	14	0	5	96
TAP	14	96	4
HLD	14	192	1	96
TAP	14	192	3
TAP	14	288	2
TAP	15	0	4
HLD	15	0	6	96
TAP	15	96	4
HLD	15	192	1	96
TAP	15	192	3
TAP	15	288	2
HLD	16	0	6	96
TAP	16	0	7
TAP	16	96	7
TAP	16	192	0
HLD	16	192	1	96
TAP	16	288	2
STR	17	0	0
SI_	17	0	0	96	48	4
STR	17	0	7
SI_	17	0	7	96	48	3
BRK	17	192	2
BRK	17	192	5
BRK	17	240	2
BRK	17	240	5
BRK	17	288	2
BRK	17	288	5
HLD	18	0	6	96
TAP	18	0	7
TAP	18	96	7
TAP	18	192	0
HLD	18	192	1	96
TAP	18	288	2
TAP	19	0	4
HLD	19	0	6	96
TAP	19	96	4
HLD	19	192	1	96
TAP	19	192	3
TAP	19	288	2
TAP	20	0	4
HLD	20	0	5	96
TAP	20	96	4
HLD	20	192	1	96
TAP	20	192	3
TAP	20	288	2
BRK	21	0	4
BRK	21	0	6
BRK	21	96	1
BRK	21	96	3
TAP	21	192	6
TAP	21	192	7
TAP	21	240	6
TAP	21	240	7
TAP	21	288	0
TAP	21	288	5
TAP	22	0	2
HLD	22	96	1	96
TAP	22	96	3
TAP	22	192	0
TAP	22	240	0
TAP	22	288	1
TAP	22	288	7
TAP	23	0	5
TAP	23	96	4
HLD	23	96	6	96
TAP	23	192	7
TAP	23	240	7
TAP	23	288	0
TAP	23	288	6
TAP	24	0	1
TAP	24	48	1
TAP	24	96	0
TAP	24	96	2
TAP	24	192	5
TAP	24	240	5
TAP	24	288	4
TAP	24	288	6
BRK	25	0	2
BRK	25	0	5
BRK	25	48	2
BRK	25	48	5
BRK	25	96	2
BRK	25	96	5
TAP	25	192	3
TAP	25	216	4
TAP	25	240	3
TAP	25	264	4
TAP	25	288	3
TAP	25	312	4
TAP	25	336	3
TAP	25	360	4
HLD	26	0	3	384
HLD	27	0	5	384
HLD	28	0	4	384
TAP	29	0	3
TAP	29	192	3
TAP	29	240	3
TAP	29	288	4
TAP	29	336	4
STR	30	0	2
SCL	30	0	2	96	96	7
STR	30	192	6
SCL	30	192	6	96	96	3
STR	31	0	1
SI_	31	0	1	96	96	4
STR	31	192	5
SI_	31	192	5	96	96	0
STR	32	0	2
SCR	32	0	2	96	96	5
STR	32	192	6
SCR	32	192	6	96	96	1
TAP	33	0	2
TAP	33	96	1
TAP	33	96	3
TAP	33	192	3
TAP	33	192	4
TAP	33	264	0
TAP	33	264	6
TAP	33	336	1
TAP	33	336	7
HLD	34	0	1	96
TAP	34	0	7
TAP	34	96	3
TAP	34	192	0
HLD	34	192	6	96
TAP	34	288	4
STR	35	0	3
SI_	35	0	3	96	48	0
STR	35	0	4
SI_	35	0	4	96	48	7
TAP	35	192	1
TAP	35	192	6
TAP	35	288	3
TAP	35	288	4
TAP	36	0	2
TAP	36	48	3
TAP	36	96	1
TAP	36	96	4
TAP	36	192	5
TAP	36	240	4
TAP	36	288	3
TAP	36	288	6
STR	37	0	0
SI_	37	0	0	96	48	3
SI_	37	0	0	96	48	5
TAP	37	0	7
BRK	37	192	2
BRK	37	192	6
BRK	37	240	2
BRK	37	240	6
BRK	37	288	2
BRK	37	288	6
HLD	38	0	1	96
TAP	38	0	3
TAP	38	96	7
TAP	38	192	4
HLD	38	192	6	96
TAP	38	288	0
STR	39	0	3
SI_	39	0	3	96	48	7
STR	39	0	4
SI_	39	0	4	96	48	0
TAP	39	192	1
TAP	39	192	6
TAP	39	288	3
TAP	39	288	4
TAP	40	0	6
TAP	40	48	7
TAP	40	96	0
TAP	40	96	5
TAP	40	192	1
TAP	40	240	0
TAP	40	288	2
TAP	40	288	7
TAP	41	0	0
TAP	41	48	0
TAP	41	96	7
TAP	41	144	7
BRK	41	192	0
BRK	41	192	6
BRK	41	240	0
BRK	41	240	6
BRK	41	288	1
BRK	41	288	5
STR	42	0	4
SI_	42	0	4	96	48	0
HLD	42	0	6	96
HLD	42	192	1	96
STR	42	192	3
SI_	42	192	3	96	48	7
STR	43	0	0
SI_	43	0	0	96	48	4
STR	43	0	7
SI_	43	0	7	96	48	3
TAP	43	192	2
TAP	43	192	5
TAP	43	288	0
TAP	43	288	7
TAP	44	0	4
TAP	44	48	5
TAP	44	96	6
TAP	44	96	7
TAP	44	192	3
TAP	44	240	2
TAP	44	288	0
TAP	44	288	1
STR	45	0	7
SV_	45	0	7	96	48	2
SV_	45	0	7	96	48	4
BRK	45	192	1
BRK	45	192	5
BRK	45	240	1
BRK	45	240	5
BRK	45	288	1
BST	45	288	5
SCR	45	288	5	96	192	2
STR	46	288	2
SCL	46	288	2	96	192	5
TAP	46	288	4
TAP	47	288	3
TAP	47	288	4
BRK	48	0	2
BRK	48	0	5
BRK	48	48	2
BRK	48	48	5
BRK	48	96	2
BRK	48	96	5
BRK	48	144	2
BRK	48	144	5
BRK	48	192	2
BRK	48	192	5
BRK	48	288	0
BRK	48	288	7
BST	49	0	1
SI_	49	0	1	96	48	5
BST	49	0	7
SI_	49	0	7	96	48	3
BRK	49	192	2
BRK	49	192	6
HLD	50	0	5	144
HLD	50	144	4	144
HLD	50	288	3	144
TAP	51	48	2
TAP	51	192	1
TAP	51	192	2
TAP	51	288	1
TAP	51	288	2
HLD	52	0	2	144
HLD	52	144	3	144
TAP	52	288	4
HLD	53	0	2	288
HLD	53	0	5	288
TAP	54	0	2
TAP	54	48	3
TAP	54	96	2
TAP	54	144	5
TAP	54	192	4
TAP	54	240	5
TAP	54	288	2
TAP	54	336	3
TAP	55	0	2
TAP	55	48	5
TAP	55	96	4
TAP	55	144	5
STR	55	192	3
SI_	55	192	3	96	48	0
TAP	56	0	5
TAP	56	48	4
TAP	56	96	6
TAP	56	144	2
TAP	56	192	3
TAP	56	240	1
TAP	56	288	5
TAP	56	336	4
TAP	57	0	6
TAP	57	48	2
TAP	57	96	3
TAP	57	144	1
STR	57	192	4
SI_	57	192	4	96	48	7
TAP	58	0	2
TAP	58	48	3
TAP	58	96	1
TAP	58	144	5
TAP	58	192	4
TAP	58	240	6
TAP	58	288	2
TAP	58	336	3
TAP	59	0	1
TAP	59	48	5
TAP	59	96	4
TAP	59	144	6
STR	59	192	0
SI_	59	192	0	96	48	4
TAP	60	0	3
HLD	60	0	6	144
TAP	60	96	7
TAP	60	144	7
TAP	60	240	0
TAP	60	240	1
TAP	60	288	0
TAP	60	288	1
HLD	61	0	2	144
TAP	61	0	7
TAP	61	96	3
TAP	61	144	3
TAP	61	240	4
TAP	61	240	5
TAP	61	288	4
TAP	61	288	5
TAP	62	0	2
TAP	62	48	2
TAP	62	96	3
TAP	62	144	3
TAP	62	192	2
TAP	62	192	3
TAP	62	240	2
TAP	62	240	3
TAP	62	288	1
TAP	62	288	4
TAP	63	0	5
TAP	63	48	5
TAP	63	96	4
TAP	63	144	4
TAP	63	192	4
TAP	63	192	5
TAP	63	240	4
TAP	63	240	5
TAP	63	288	3
TAP	63	288	6
TAP	64	0	3
TAP	64	0	4
TAP	64	48	3
TAP	64	48	4
TAP	64	96	2
TAP	64	96	5
TAP	64	144	2
TAP	64	144	5
TAP	64	192	1
TAP	64	192	6
TAP	64	240	1
TAP	64	240	6
STR	64	288	0
SCR	64	288	0	96	288	6
TAP	64	288	7
STR	65	288	7
SCL	65	288	7	96	288	1
STR	66	288	0
SXL	66	288	0	96	288	4
SXR	66	288	0	96	288	4
TAP	68	0	1
TAP	68	48	1
TAP	68	96	3
TAP	68	144	3
TAP	68	192	4
TAP	68	240	4
TAP	68	288	6
TAP	68	336	6
STR	69	0	1
SI_	69	0	1	96	48	4
TAP	69	48	1
STR	69	96	6
SI_	69	96	6	96	48	3
TAP	69	144	6
TAP	69	192	0
TAP	69	240	0
STR	69	288	0
SI_	69	288	0	96	48	3
SI_	69	288	0	96	48	5
STR	70	96	7
SI_	70	96	7	96	48	2
SI_	70	96	7	96	48	4
TAP	70	288	1
TAP	70	288	5
TAP	71	0	2
TAP	71	0	7
TAP	71	48	6
TAP	71	96	0
TAP	71	96	5
TAP	71	144	1
BRK	71	192	2
BRK	71	192	3
BRK	71	240	2
BRK	71	240	3
BRK	71	288	1
BRK	71	288	4
TAP	72	0	6
TAP	72	48	6
TAP	72	96	4
TAP	72	144	4
TAP	72	192	3
TAP	72	240	3
TAP	72	288	1
TAP	72	336	1
STR	73	0	6
SI_	73	0	6	96	48	3
TAP	73	48	6
STR	73	96	1
SI_	73	96	1	96	48	4
TAP	73	144	1
TAP	73	192	7
TAP	73	240	7
STR	73	288	7
SI_	73	288	7	96	48	2
SI_	73	288	7	96	48	4
STR	74	96	0
SI_	74	96	0	96	48	3
SI_	74	96	0	96	48	5
TAP	74	288	2
TAP	74	288	6
TAP	75	0	0
TAP	75	0	5
TAP	75	48	1
TAP	75	96	2
TAP	75	96	7
TAP	75	144	6
BRK	75	192	4
BRK	75	192	5
BRK	75	240	4
BRK	75	240	5
BRK	75	288	3
BRK	75	288	6
TAP	76	0	1
TAP	76	48	1
TAP	76	96	3
TAP	76	144	4
TAP	76	192	6
TAP	76	240	6
TAP	76	288	4
TAP	76	336	3
STR	77	0	1
SI_	77	0	1	96	48	4
TAP	77	48	1
STR	77	96	6
SI_	77	96	6	96	48	3
TAP	77	144	6
TAP	77	192	0
TAP	77	240	0
STR	77	288	1
SI_	77	288	1	96	48	4
STR	77	288	7
SI_	77	288	7	96	48	3
STR	78	96	0
SI_	78	96	0	96	48	4
STR	78	96	6
SI_	78	96	6	96	48	3
TAP	78	288	0
TAP	78	288	7
TAP	79	0	1
TAP	79	0	6
TAP	79	48	1
TAP	79	48	6
TAP	79	96	2
TAP	79	96	5
TAP	79	144	2
TAP	79	144	5
BRK	79	192	3
BRK	79	192	4
BRK	79	240	3
BRK	79	240	4
BST	79	288	3
SCL	79	288	3	96	192	5
BRK	79	288	4
HLD	80	0	4	192
STR	80	288	4
SCR	80	288	4	96	192	2
HLD	81	0	3	192
TAP	81	288	1
TAP	81	288	4
TAP	82	0	2
TAP	82	0	3
TAP	82	48	2
TAP	82	48	3
TAP	82	96	1
TAP	82	96	4
TAP	82	192	4
TAP	82	192	5
TAP	82	240	4
TAP	82	240	5
TAP	82	288	3
TAP	82	288	6
TAP	83	0	0
TAP	83	0	1
TAP	83	48	0
TAP	83	48	1
TAP	83	96	2
TAP	83	96	7
TAP	83	192	6
TAP	83	192	7
TAP	83	240	6
TAP	83	240	7
TAP	83	288	0
TAP	83	288	5
TAP	84	0	2
TAP	84	48	2
TAP	84	96	3
TAP	84	144	1
TAP	84	192	2
TAP	84	192	3
TAP	84	240	2
TAP	84	240	3
TAP	84	288	1
TAP	84	288	4
TAP	85	0	5
TAP	85	48	5
TAP	85	96	4
TAP	85	144	6
TAP	85	192	4
TAP	85	192	5
TAP	85	240	4
TAP	85	240	5
TAP	85	288	3
TAP	85	288	6
TAP	86	0	1
TAP	86	48	1
TAP	86	96	6
TAP	86	144	6
TAP	86	192	0
TAP	86	240	0
TAP	86	288	7
TAP	86	336	7
TAP	87	0	0
TAP	87	24	7
TAP	87	48	0
TAP	87	72	7
TAP	87	96	0
TAP	87	120	7
TAP	87	144	0
TAP	87	168	7
TAP	87	192	0
TAP	87	216	7
TAP	87	240	0
TAP	87	264	7
TAP	87	288	0
TAP	87	312	7
TAP	87	336	0
TAP	87	360	7
TAP	88	0	0
TAP	88	96	1
TAP	88	96	6
BRK	88	144	1
BRK	88	144	6
TAP	88	240	3
TAP	88	240	4
TAP	88	288	3
TAP	88	288	4
TAP	89	0	1
TAP	89	0	7
TAP	89	48	0
TAP	89	96	0
TAP	89	144	1
STR	89	144	7
SI_	89	144	7	96	48	3
TAP	89	240	2
TAP	89	288	2
TAP	90	0	0
TAP	90	0	6
TAP	90	48	7
TAP	90	96	7
STR	90	144	0
SI_	90	144	0	96	48	4
TAP	90	144	6
TAP	90	240	5
TAP	90	288	5
TAP	91	0	6
TAP	91	48	6
TAP	91	96	7
TAP	91	144	7
BRK	91	192	0
BRK	91	192	6
BRK	91	240	1
BRK	91	240	5
BRK	91	288	2
BRK	91	288	4
BRK	92	0	3
BRK	92	0	6
TAP	92	96	0
TAP	92	96	7
TAP	92	144	0
TAP	92	144	7
TAP	92	240	1
TAP	92	240	4
TAP	92	288	1
TAP	92	288	4
TAP	93	0	4
TAP	93	0	6
TAP	93	48	5
TAP	93	96	5
STR	93	144	4
SI_	93	144	4	96	48	0
TAP	93	144	6
TAP	93	240	7
TAP	93	288	7
TAP	94	0	1
TAP	94	0	3
TAP	94	48	2
TAP	94	96	2
TAP	94	144	1
STR	94	144	3
SI_	94	144	3	96	48	7
TAP	94	240	0
TAP	94	288	0
TAP	95	0	4
TAP	95	0	6
TAP	95	48	4
TAP	95	48	6
TAP	95	96	5
TAP	95	144	4
TAP	95	192	1
TAP	95	192	3
TAP	95	240	1
TAP	95	240	3
TAP	95	288	1
TAP	95	288	3
TAP	96	0	4
TAP	96	0	6
TAP	96	48	4
TAP	96	48	6
TAP	96	96	7
TAP	96	144	0
TAP	96	192	1
TAP	96	192	3
TAP	96	240	1
TAP	96	240	3
TAP	96	288	1
TAP	96	288	3
TAP	97	0	3
TAP	97	0	4
TAP	97	48	3
TAP	97	48	4
TAP	97	96	2
TAP	97	96	5
TAP	97	144	2
TAP	97	144	5
TAP	97	192	1
TAP	97	192	6
TAP	97	240	1
TAP	97	240	6
TAP	97	288	0
TAP	97	288	7
TAP	97	336	0
TAP	97	336	7
TAP	98	0	7
TAP	98	48	6
TAP	98	96	5
TAP	98	144	4
TAP	98	192	3
TAP	98	240	2
TAP	98	288	1
TAP	98	336	1
TAP	99	0	1
TAP	99	24	2
TAP	99	48	3
TAP	99	72	4
TAP	99	96	5
TAP	99	120	6
TAP	99	144	7
TAP	99	168	0
TAP	99	192	1
TAP	99	216	2
TAP	99	240	3
TAP	99	264	4
TAP	99	288	5
TAP	99	312	6
TAP	99	336	7
TAP	99	360	0
BRK	100	96	1
BST	100	96	7
SI_	100	96	7	96	1488	3
BST	100	144	1
SI_	100	144	1	96	1440	5
BRK	100	144	7

T_REC_TAP	488
T_REC_BRK	77
T_REC_XTP	0
T_REC_HLD	38
T_REC_XHO	0
T_REC_STR	47
T_REC_BST	8
T_REC_XST	0
T_REC_TTP	0
T_REC_THO	0
T_REC_SLD	63
T_REC_ALL	721
T_NUM_TAP	535
T_NUM_BRK	85
T_NUM_HLD	38
T_NUM_SLD	63
T_NUM_ALL	721
T_JUDGE_TAP	620
T_JUDGE_HLD	129
T_JUDGE_SLD	63
T_JUDGE_ALL	812
TTM_EACHPAIRS	191
TTM_SCR_TAP	267500
TTM_SCR_BRK	221000
TTM_SCR_HLD	38000
TTM_SCR_SLD	94500
TTM_SCR_ALL	621000
TTM_SCR_S	594150
TTM_SCR_SS	612500
TTM_RAT_ACV	10138

