VERSION	0.00.00	1.03.00
FES_MODE	0
BPM_DEF	176.000	185.000	185.000	176.000
MET_DEF	4	4
RESOLUTION	384
CLK_DEF	384
COMPATIBLE_CODE	MA2

BPM	0	0	176.000
BPM	9	0	185.000

HLD	3	0	5	384
HLD	4	0	4	384
HLD	5	0	3	384
HLD	6	0	2	1152
BRK	9	0	3
TAP	10	0	5
TAP	10	96	4
TAP	10	192	3
TAP	10	192	4
TAP	11	0	2
TAP	11	96	3
TAP	11	192	3
TAP	11	192	4
TAP	12	0	5
TAP	12	96	4
TAP	12	192	3
TAP	12	192	4
HLD	13	0	2	192
HLD	13	0	5	192
TAP	14	0	1
TAP	14	96	1
TAP	14	192	0
TAP	14	288	0
TAP	15	0	7
TAP	15	96	7
TAP	15	192	6
TAP	15	192	7
TAP	15	288	6
TAP	15	288	7
TAP	16	0	5
TAP	16	96	5
TAP	16	192	4
TAP	16	288	4
TAP	17	0	3
TAP	17	96	3
TAP	17	192	2
TAP	17	192	3
TAP	17	288	2
TAP	17	288	3
TAP	18	0	1
TAP	18	96	1
TAP	18	192	0
TAP	18	288	0
TAP	19	0	7
TAP	19	96	7
TAP	19	192	0
TAP	19	192	6
TAP	19	288	0
TAP	19	288	6
TAP	20	0	5
TAP	20	96	5
TAP	20	192	4
TAP	20	288	4
TAP	21	0	3
TAP	21	0	4
TAP	21	96	3
TAP	21	96	4
TAP	21	192	2
TAP	21	192	5
TAP	21	288	2
TAP	21	288	5
TAP	22	0	6
TAP	22	96	7
TAP	22	192	0
TAP	22	288	1
TAP	23	0	2
TAP	23	96	3
TAP	23	192	3
TAP	23	192	4
TAP	23	288	2
TAP	23	288	5
TAP	24	0	6
TAP	24	96	7
TAP	24	192	0
TAP	24	288	1
TAP	25	0	2
TAP	25	0	3
TAP	25	96	2
TAP	25	96	3
TAP	25	192	4
TAP	25	192	5
TAP	25	288	4
TAP	25	288	5
HLD	26	0	6	384
HLD	27	0	5	384
HLD	28	0	4	384
STR	29	0	3
SI_	29	0	3	96	192	0
TAP	30	0	7
TAP	30	96	7
TAP	30	192	0
TAP	30	288	0
TAP	31	0	6
TAP	31	96	6
TAP	31	192	1
TAP	31	288	1
TAP	32	0	5
TAP	32	96	5
TAP	32	192	2
TAP	32	288	2
HLD	33	0	3	192
HLD	33	0	4	192
BRK	33	288	2
BRK	33	288	5
TAP	34	0	0
TAP	34	48	0
TAP	34	96	0
TAP	34	192	7
TAP	34	288	0
TAP	34	288	6
TAP	35	0	7
TAP	35	48	7
TAP	35	96	7
TAP	35	192	0
TAP	35	288	1
TAP	35	288	7
STR	36	0	0
SI_	36	0	0	96	192	3
STR	36	0	7
SI_	36	0	7	96	192	4
TAP	37	0	2
TAP	37	0	5
TAP	37	96	2
TAP	37	96	5
BRK	37	192	3
BRK	37	192	4
TAP	38	0	4
TAP	38	48	4
TAP	38	96	4
TAP	38	192	3
TAP	38	288	2
TAP	38	288	4
TAP	39	0	3
TAP	39	48	3
TAP	39	96	3
TAP	39	192	4
TAP	39	288	3
TAP	39	288	5
HLD	40	0	4	96
HLD	40	0	5	96
HLD	40	192	2	96
HLD	40	192	3	96
HLD	41	0	3	96
HLD	41	0	4	96
TAP	41	192	2
TAP	41	192	5
BRK	41	288	2
BRK	41	288	5
TAP	42	0	1
TAP	42	48	1
TAP	42	96	1
TAP	42	192	0
TAP	42	288	1
TAP	42	288	7
TAP	43	0	6
TAP	43	48	6
TAP	43	96	6
TAP	43	192	7
TAP	43	288	0
TAP	43	288	6
STR	44	0	0
SI_	44	0	0	96	192	3
STR	44	0	7
SI_	44	0	7	96	192	4
TAP	45	0	2
TAP	45	0	5
TAP	45	96	2
TAP	45	96	5
BRK	45	192	3
BRK	45	192	4
TAP	46	0	5
TAP	46	48	5
TAP	46	96	5
TAP	46	192	4
TAP	46	288	3
TAP	46	288	5
TAP	47	0	2
TAP	47	48	2
TAP	47	96	2
TAP	47	192	3
TAP	47	288	2
TAP	47	288	4
TAP	48	0	1
TAP	48	48	1
TAP	48	96	1
TAP	48	192	0
TAP	48	288	1
TAP	48	288	7
TAP	49	0	6
TAP	49	48	6
TAP	49	96	6
TAP	49	192	7
TAP	49	288	0
TAP	49	288	6
HLD	50	0	5	384
HLD	51	0	4	384
HLD	52	0	3	384
BRK	53	0	2
TAP	54	0	3
TAP	54	96	2
TAP	54	192	1
TAP	54	288	0
TAP	55	0	7
TAP	55	96	6
TAP	55	192	4
TAP	55	192	5
TAP	55	288	4
TAP	55	288	5
TAP	56	0	4
TAP	56	96	5
TAP	56	192	6
TAP	56	288	7
TAP	57	0	0
TAP	57	96	1
BRK	57	192	2
BRK	57	192	3
TAP	58	0	0
TAP	58	96	1
TAP	58	192	2
TAP	58	288	3
TAP	59	0	4
TAP	59	96	5
TAP	59	192	6
TAP	59	192	7
TAP	59	288	0
TAP	59	288	5
STR	60	0	1
SI_	60	0	1	96	192	4
STR	61	0	6
SI_	61	0	6	96	192	3
STR	62	0	2
SI_	62	0	2	96	192	7
STR	63	0	5
SI_	63	0	5	96	192	0
STR	64	0	0
SI_	64	0	0	96	192	3
STR	64	0	7
SI_	64	0	7	96	192	4
HLD	65	0	3	192
HLD	65	0	4	192
HLD	66	0	2	192
HLD	66	0	5	192
BRK	67	0	0
BRK	67	0	7
TAP	68	0	0
TAP	68	48	0
TAP	68	96	0
TAP	68	192	1
TAP	68	192	7
TAP	68	288	2
TAP	68	288	6
TAP	69	0	7
TAP	69	48	7
TAP	69	96	7
TAP	69	192	0
TAP	69	192	6
TAP	69	288	1
TAP	69	288	5
STR	70	0	0
SI_	70	0	0	96	192	3
STR	70	0	7
SI_	70	0	7	96	192	4
TAP	71	0	2
TAP	71	0	5
TAP	71	96	2
TAP	71	96	5
BRK	71	192	3
BRK	71	192	4
TAP	72	0	4
TAP	72	48	4
TAP	72	96	4
TAP	72	192	3
TAP	72	192	5
TAP	72	288	2
TAP	72	288	6
TAP	73	0	3
TAP	73	48	3
TAP	73	96	3
TAP	73	192	2
TAP	73	192	4
TAP	73	288	1
TAP	73	288	5
HLD	74	0	4	96
HLD	74	0	5	96
HLD	74	192	2	96
HLD	74	192	3	96
HLD	75	0	3	96
HLD	75	0	4	96
TAP	75	192	2
TAP	75	192	5
BRK	75	288	1
BRK	75	288	6
TAP	76	0	1
TAP	76	48	1
TAP	76	96	1
TAP	76	192	0
TAP	76	192	2
TAP	76	288	3
TAP	76	288	7
TAP	77	0	6
TAP	77	48	6
TAP	77	96	6
TAP	77	192	5
TAP	77	192	7
TAP	77	288	0
TAP	77	288	4
STR	78	0	0
SI_	78	0	0	96	192	3
STR	78	0	7
SI_	78	0	7	96	192	4
TAP	79	0	2
TAP	79	0	5
TAP	79	96	2
TAP	79	96	5
BRK	79	192	3
BRK	79	192	4
TAP	80	0	2
TAP	80	48	2
TAP	80	96	2
TAP	80	192	1
TAP	80	192	3
TAP	80	288	0
TAP	80	288	4
TAP	81	0	5
TAP	81	48	5
TAP	81	96	5
TAP	81	192	4
TAP	81	192	6
TAP	81	288	3
TAP	81	288	7
TAP	82	0	1
TAP	82	48	1
TAP	82	96	1
TAP	82	192	0
TAP	82	192	2
TAP	82	288	3
TAP	82	288	7
TAP	83	0	6
TAP	83	48	6
TAP	83	96	6
TAP	83	192	5
TAP	83	192	7
TAP	83	288	0
TAP	83	288	4
STR	84	0	4
SCR	84	0	4	96	576	3
TAP	86	0	2
TAP	86	96	1
TAP	86	96	3
TAP	86	192	0
TAP	86	192	4
TAP	86	288	5
TAP	86	288	7
TAP	87	0	6
TAP	87	48	6
TAP	87	96	6
TAP	87	192	1
TAP	87	240	1
TAP	87	288	1
TAP	88	0	6
TAP	88	96	6
TAP	88	192	7
TAP	88	288	7
TAP	89	0	0
TAP	89	96	0
TAP	89	192	0
TAP	89	192	1
TAP	89	288	2
TAP	89	288	7
TAP	90	0	2
TAP	90	96	2
TAP	90	192	3
TAP	90	288	3
TAP	91	0	4
TAP	91	96	4
TAP	91	192	4
TAP	91	192	5
TAP	91	288	3
TAP	91	288	6
TAP	92	0	6
TAP	92	96	6
TAP	92	192	7
TAP	92	288	7
TAP	93	0	0
TAP	93	96	0
TAP	93	192	1
TAP	93	192	7
TAP	93	288	2
TAP	93	288	6
TAP	94	0	2
TAP	94	96	2
TAP	94	192	3
TAP	94	288	3
TAP	95	0	4
TAP	95	96	4
TAP	95	192	3
TAP	95	192	5
TAP	95	288	2
TAP	95	288	6
TAP	96	0	6
TAP	96	96	7
TAP	96	192	0
TAP	96	288	1
TAP	97	0	2
TAP	97	96	3
TAP	97	192	4
TAP	97	288	5
TAP	98	0	4
TAP	98	0	5
TAP	98	96	3
TAP	98	96	6
TAP	98	192	2
TAP	98	192	3
TAP	98	288	1
TAP	98	288	4
TAP	99	0	0
TAP	99	0	1
TAP	99	96	2
TAP	99	96	7
TAP	99	192	6
TAP	99	192	7
TAP	99	288	0
TAP	99	288	5
TAP	100	96	0
TAP	100	96	7
STR	100	144	0
SI_	100	144	0	96	912	4
STR	100	144	7
SI_	100	144	7	96	912	3

T_REC_TAP	343
T_REC_BRK	20
T_REC_XTP	0
T_REC_HLD	30
T_REC_XHO	0
T_REC_STR	18
T_REC_BST	0
T_REC_XST	0
T_REC_TTP	0
T_REC_THO	0
T_REC_SLD	18
T_REC_ALL	429
T_NUM_TAP	361
T_NUM_BRK	20
T_NUM_HLD	30
T_NUM_SLD	18
T_NUM_ALL	429
T_JUDGE_TAP	381
T_JUDGE_HLD	152
T_JUDGE_SLD	18
T_JUDGE_ALL	551
TTM_EACHPAIRS	108
TTM_SCR_TAP	180500
TTM_SCR_BRK	52000
TTM_SCR_HLD	30000
TTM_SCR_SLD	27000
TTM_SCR_ALL	289500
TTM_SCR_S	278900
TTM_SCR_SS	287500
TTM_RAT_ACV	10069

