VERSION	0.00.00	1.03.00
FES_MODE	0
BPM_DEF	176.000	185.000	185.000	176.000
MET_DEF	4	4
RESOLUTION	384
CLK_DEF	384
COMPATIBLE_CODE	MA2

BPM	0	0	176.000
BPM	9	0	185.000

TAP	3	0	0
TAP	4	0	0
TAP	5	0	7
HLD	6	0	7	768
TAP	10	0	0
TAP	10	96	0
TAP	10	192	0
TAP	11	0	1
TAP	11	96	1
TAP	11	192	1
TAP	12	0	2
TAP	12	96	2
TAP	12	192	2
TAP	13	0	3
TAP	13	0	4
TAP	13	96	3
TAP	13	96	4
TAP	13	192	3
TAP	13	192	4
TAP	14	0	4
TAP	14	96	4
TAP	14	192	4
TAP	15	0	5
TAP	15	96	5
TAP	15	192	5
TAP	16	0	6
TAP	16	96	6
TAP	16	192	6
TAP	17	0	7
TAP	17	96	7
TAP	17	192	7
TAP	18	0	0
TAP	18	0	7
TAP	18	96	0
TAP	18	96	7
TAP	18	192	0
TAP	18	192	7
TAP	19	0	6
TAP	19	96	6
TAP	19	192	6
TAP	20	0	5
TAP	20	96	5
TAP	20	192	5
TAP	21	0	3
TAP	21	0	4
TAP	21	96	3
TAP	21	96	4
BRK	21	192	3
BRK	21	192	4
TAP	22	0	3
TAP	22	96	3
TAP	22	192	3
TAP	23	0	2
TAP	23	96	2
TAP	23	192	2
TAP	24	0	1
TAP	24	96	1
TAP	24	192	1
TAP	25	0	0
TAP	25	0	7
TAP	25	96	0
TAP	25	96	7
TAP	25	192	0
TAP	25	192	7
TAP	26	0	0
TAP	26	192	7
TAP	27	0	0
TAP	27	0	6
TAP	28	0	7
TAP	28	192	0
TAP	29	0	1
TAP	29	0	7
STR	30	0	0
SI_	30	0	0	96	288	4
STR	32	0	7
SI_	32	0	7	96	288	3
TAP	34	0	0
TAP	34	96	0
TAP	34	192	1
TAP	34	288	1
TAP	35	0	2
TAP	35	96	2
TAP	35	192	3
TAP	35	288	3
HLD	36	0	4	192
HLD	37	0	3	192
TAP	38	0	4
TAP	38	96	4
TAP	38	192	5
TAP	38	288	5
TAP	39	0	6
TAP	39	96	6
TAP	39	192	7
TAP	39	288	7
HLD	40	0	0	192
HLD	41	0	7	192
TAP	42	0	7
TAP	42	96	7
TAP	42	192	6
TAP	42	288	6
TAP	43	0	5
TAP	43	96	5
TAP	43	192	4
TAP	43	288	4
HLD	44	0	3	192
HLD	45	0	4	192
TAP	46	0	3
TAP	46	96	3
TAP	46	192	2
TAP	46	288	2
TAP	47	0	1
TAP	47	96	1
TAP	47	192	0
TAP	47	288	0
TAP	48	0	7
TAP	48	96	7
TAP	48	192	6
TAP	48	288	6
TAP	49	0	5
TAP	49	96	5
TAP	49	192	4
TAP	49	288	4
STR	50	0	3
SI_	50	0	3	96	288	0
STR	52	0	4
SI_	52	0	4	96	288	7
HLD	54	0	0	144
HLD	54	288	0	144
TAP	55	192	0
HLD	56	0	7	144
HLD	56	288	7	144
TAP	57	192	7
HLD	58	0	0	144
HLD	58	0	7	144
HLD	58	288	0	144
HLD	58	288	7	144
TAP	59	192	0
TAP	59	192	7
TAP	60	0	0
TAP	60	192	0
TAP	61	0	0
TAP	61	192	0
TAP	61	192	7
TAP	62	0	7
TAP	62	192	7
TAP	63	0	7
TAP	63	192	0
TAP	63	192	7
TAP	64	0	0
TAP	64	96	0
TAP	64	192	7
TAP	64	288	7
BRK	65	0	1
BRK	65	0	6
BRK	66	0	0
BRK	66	0	7
TAP	67	0	0
TAP	67	0	7
TAP	68	0	0
TAP	68	96	0
TAP	68	192	1
TAP	68	288	1
TAP	69	0	2
TAP	69	96	2
TAP	69	192	3
TAP	69	288	3
TAP	70	0	4
TAP	70	0	5
TAP	70	96	4
TAP	70	96	5
TAP	70	192	4
TAP	70	192	5
TAP	71	0	2
TAP	71	0	3
TAP	71	96	2
TAP	71	96	3
TAP	71	192	2
TAP	71	192	3
TAP	72	0	4
TAP	72	96	4
TAP	72	192	5
TAP	72	288	5
TAP	73	0	6
TAP	73	96	6
TAP	73	192	7
TAP	73	288	7
HLD	74	0	0	192
BRK	75	0	0
BRK	75	0	7
TAP	76	0	7
TAP	76	96	7
TAP	76	192	6
TAP	76	288	6
TAP	77	0	5
TAP	77	96	5
TAP	77	192	4
TAP	77	288	4
TAP	78	0	2
TAP	78	0	3
TAP	78	96	2
TAP	78	96	3
TAP	78	192	2
TAP	78	192	3
TAP	79	0	4
TAP	79	0	5
TAP	79	96	4
TAP	79	96	5
TAP	79	192	4
TAP	79	192	5
HLD	80	0	3	192
HLD	81	0	2	192
HLD	82	0	1	192
HLD	83	0	0	192
STR	84	0	7
SI_	84	0	7	96	288	3
STR	86	0	0
SI_	86	0	0	96	288	4
BRK	88	0	7
TAP	88	96	7
TAP	88	192	7
TAP	89	0	6
TAP	89	96	6
TAP	89	192	6
TAP	89	192	7
TAP	90	0	5
TAP	90	96	5
TAP	90	192	5
TAP	91	0	4
TAP	91	96	4
TAP	91	192	3
TAP	91	192	4
TAP	92	0	3
TAP	92	96	3
TAP	92	192	3
TAP	93	0	2
TAP	93	96	2
TAP	93	192	2
TAP	93	192	3
TAP	94	0	1
TAP	94	96	1
TAP	94	192	1
TAP	95	0	0
TAP	95	96	0
TAP	95	192	0
TAP	96	0	7
TAP	96	96	7
TAP	96	192	6
TAP	96	288	6
TAP	97	0	5
TAP	97	96	5
TAP	97	192	4
TAP	97	288	4
TAP	98	0	3
TAP	98	96	3
TAP	98	192	2
TAP	98	288	2
TAP	99	0	1
TAP	99	96	1
TAP	99	192	0
TAP	99	288	0
TAP	99	288	7
STR	100	0	0
SI_	100	0	0	96	288	4
STR	100	0	7
SI_	100	0	7	96	288	3

T_REC_TAP	220
T_REC_BRK	9
T_REC_XTP	0
T_REC_HLD	20
T_REC_XHO	0
T_REC_STR	8
T_REC_BST	0
T_REC_XST	0
T_REC_TTP	0
T_REC_THO	0
T_REC_SLD	8
T_REC_ALL	265
T_NUM_TAP	228
T_NUM_BRK	9
T_NUM_HLD	20
T_NUM_SLD	8
T_NUM_ALL	265
T_JUDGE_TAP	237
T_JUDGE_HLD	84
T_JUDGE_SLD	8
T_JUDGE_ALL	329
TTM_EACHPAIRS	40
TTM_SCR_TAP	114000
TTM_SCR_BRK	23400
TTM_SCR_HLD	20000
TTM_SCR_SLD	12000
TTM_SCR_ALL	169400
TTM_SCR_S	163450
TTM_SCR_SS	168500
TTM_RAT_ACV	10053

