VERSION	0.00.00	1.03.00
FES_MODE	0
BPM_DEF	192.000	192.000	192.000	192.000
MET_DEF	4	4
RESOLUTION	384
CLK_DEF	384
COMPATIBLE_CODE	MA2

BPM	0	0	192.000

HLD	1	0	3	1032
HLD	1	0	4	1032
TAP	4	0	6
TAP	4	48	7
TAP	4	96	5
TAP	4	144	3
TAP	4	192	6
TAP	4	240	2
TAP	4	288	7
TAP	4	336	1
TAP	5	0	1
TAP	5	48	3
TAP	5	96	2
TAP	5	144	4
TAP	5	192	3
TAP	5	240	5
TAP	5	288	4
TAP	5	336	6
TAP	6	0	1
TAP	6	48	0
TAP	6	96	2
TAP	6	144	4
TAP	6	192	1
TAP	6	240	5
TAP	6	288	0
TAP	6	336	6
TAP	7	0	6
TAP	7	48	4
TAP	7	96	5
TAP	7	144	3
TAP	7	192	4
TAP	7	240	2
TAP	7	288	3
TAP	7	336	1
TAP	8	0	6
TAP	8	48	6
TAP	8	96	5
TAP	8	144	7
TAP	8	192	4
TAP	8	240	4
TAP	8	288	5
TAP	8	336	3
TAP	9	0	7
TAP	9	48	7
TAP	9	96	0
TAP	9	144	6
TAP	9	192	3
TAP	9	240	3
TAP	9	288	4
TAP	9	336	2
TAP	10	0	5
TAP	10	48	5
TAP	10	96	4
TAP	10	144	6
TAP	10	192	0
TAP	10	240	0
TAP	10	288	7
TAP	10	336	1
TAP	11	0	4
TAP	11	48	4
TAP	11	96	3
TAP	11	144	5
TAP	11	192	1
TAP	11	240	1
TAP	11	288	2
TAP	11	336	0
TAP	12	0	3
TAP	12	48	3
TAP	12	96	2
TAP	12	144	4
TAP	12	192	0
TAP	12	240	0
TAP	12	288	7
TAP	12	336	1
TAP	13	0	4
TAP	13	48	4
TAP	13	96	3
TAP	13	144	5
TAP	13	192	2
TAP	13	240	2
TAP	13	288	3
TAP	13	336	1
TAP	14	0	7
TAP	14	48	7
TAP	14	96	0
TAP	14	144	6
TAP	14	192	3
TAP	14	240	3
TAP	14	288	4
TAP	14	336	2
BST	15	0	7
SCR	15	0	7	96	192	4
TAP	16	0	5
TAP	16	48	4
TAP	16	96	3
TAP	16	96	6
TAP	16	144	2
TAP	16	192	5
TAP	16	240	4
TAP	16	288	3
TAP	16	288	6
TAP	16	336	2
TAP	17	0	2
TAP	17	48	3
TAP	17	96	1
TAP	17	96	4
TAP	17	144	5
TAP	17	192	2
TAP	17	240	3
TAP	17	288	1
TAP	17	288	4
TAP	17	336	5
TAP	18	0	6
TAP	18	48	7
TAP	18	96	0
TAP	18	96	5
TAP	18	144	1
TAP	18	192	6
TAP	18	240	7
TAP	18	288	0
TAP	18	288	5
TAP	18	336	1
TAP	19	0	1
TAP	19	48	0
TAP	19	96	2
TAP	19	96	7
TAP	19	144	6
TAP	19	192	1
TAP	19	240	0
TAP	19	288	2
TAP	19	288	7
TAP	19	336	6
TAP	20	0	3
TAP	20	0	4
TAP	20	48	2
TAP	20	96	3
TAP	20	96	4
TAP	20	144	5
TAP	20	192	2
TAP	20	192	3
TAP	20	240	1
TAP	20	288	4
TAP	20	288	5
TAP	20	336	6
TAP	21	0	2
TAP	21	0	3
TAP	21	48	0
TAP	21	96	4
TAP	21	96	5
TAP	21	144	7
TAP	21	192	1
TAP	21	192	3
TAP	21	240	0
TAP	21	240	7
TAP	21	288	4
TAP	21	288	6
TAP	21	336	0
TAP	21	336	7
TAP	22	0	2
TAP	22	24	3
TAP	22	48	1
TAP	22	96	5
TAP	22	120	4
TAP	22	144	6
TAP	22	192	2
TAP	22	216	3
TAP	22	240	0
TAP	22	288	5
TAP	22	312	4
TAP	22	336	7
TAP	23	0	2
TAP	23	24	4
TAP	23	48	0
TAP	23	96	5
TAP	23	120	3
TAP	23	144	7
TAP	23	192	1
TAP	23	216	4
TAP	23	240	0
TAP	23	288	6
TAP	23	312	3
TAP	23	336	7
STR	24	0	0
SCL	24	0	0	96	192	3
HLD	24	0	1	1152
STR	25	0	4
SV_	25	0	4	96	192	7
STR	26	0	0
SI_	26	0	0	96	192	4
HLD	27	0	3	192
TAP	27	192	4
STR	28	0	4
SXR	28	0	4	96	192	7
HLD	28	0	6	1152
STR	29	0	7
SI_	29	0	7	96	192	2
STR	30	0	2
SCL	30	0	2	96	192	4
STR	31	0	4
SI_	31	0	4	96	144	7
SUR	31	0	4	96	144	1
TAP	32	0	4
TAP	32	48	3
TAP	32	96	5
TAP	32	192	4
TAP	32	240	3
TAP	32	288	5
TAP	33	0	4
TAP	33	48	3
TAP	33	96	5
TAP	33	144	3
STR	33	192	6
SCL	33	192	6	96	48	4
TAP	33	288	6
TAP	34	0	3
TAP	34	48	4
TAP	34	96	2
TAP	34	192	3
TAP	34	240	4
TAP	34	288	2
TAP	35	0	3
TAP	35	48	4
TAP	35	96	2
TAP	35	144	5
STR	35	192	0
SCR	35	192	0	96	48	2
TAP	35	288	0
TAP	36	0	4
TAP	36	48	3
TAP	36	96	5
TAP	36	192	4
TAP	36	240	3
TAP	36	288	5
TAP	37	0	4
TAP	37	48	3
TAP	37	96	5
TAP	37	144	3
STR	37	192	6
SCL	37	192	6	96	48	4
TAP	37	288	6
TAP	38	0	2
TAP	38	48	3
HLD	38	96	4	192
TAP	38	192	5
HLD	38	288	2	192
TAP	39	0	1
HLD	39	96	5	192
TAP	39	192	7
STR	39	288	1
SCR	39	288	1	96	144	4
TAP	39	336	0
TAP	40	0	7
STR	40	288	5
SCR	40	288	5	96	144	0
TAP	40	336	4
TAP	41	0	3
TAP	41	240	1
STR	41	288	1
SCR	41	288	1	96	144	4
TAP	41	336	0
TAP	42	0	7
STR	42	192	5
SI_	42	192	5	96	96	1
STR	42	288	1
SCR	42	288	1	96	192	5
TAP	43	0	0
STR	43	288	6
SCL	43	288	6	96	144	3
TAP	43	336	7
TAP	44	0	0
STR	44	288	6
SCL	44	288	6	96	144	3
TAP	44	336	7
TAP	45	0	0
TAP	45	240	1
STR	45	288	1
SCR	45	288	1	96	96	3
TAP	45	336	0
TAP	46	0	7
STR	46	192	4
SI_	46	192	4	96	96	0
STR	46	288	0
SCL	46	288	0	96	240	1
SCR	46	288	0	96	240	7
BST	48	0	0
SI_	48	0	0	96	48	4
BST	48	96	0
SF_	48	96	0	96	48	4
BRK	48	192	0
STR	49	0	1
SI_	49	0	1	96	48	4
TAP	49	48	0
TAP	49	96	1
TAP	49	96	7
TAP	49	144	6
STR	49	192	1
SI_	49	192	1	96	48	3
TAP	49	240	0
TAP	49	288	1
TAP	49	288	7
TAP	49	336	6
STR	50	0	1
SI_	50	0	1	96	48	4
TAP	50	48	0
TAP	50	96	1
TAP	50	96	7
TAP	50	144	6
TAP	50	192	1
TAP	50	192	5
TAP	50	240	1
TAP	50	256	2
TAP	50	272	3
TAP	50	288	4
TAP	50	336	7
STR	51	0	6
SI_	51	0	6	96	48	3
TAP	51	48	7
TAP	51	96	0
TAP	51	96	6
TAP	51	144	1
STR	51	192	6
SI_	51	192	6	96	48	4
TAP	51	240	7
TAP	51	288	0
TAP	51	288	6
TAP	51	336	1
STR	52	0	6
SI_	52	0	6	96	48	3
TAP	52	48	7
TAP	52	96	0
TAP	52	96	6
TAP	52	144	1
TAP	52	192	2
TAP	52	192	7
TAP	52	240	7
TAP	52	256	6
TAP	52	272	5
TAP	52	288	4
TAP	52	336	0
STR	53	0	1
SI_	53	0	1	96	48	4
TAP	53	48	0
TAP	53	96	1
TAP	53	96	7
TAP	53	144	6
STR	53	192	1
SI_	53	192	1	96	48	3
TAP	53	240	0
TAP	53	288	1
TAP	53	288	7
TAP	53	336	6
STR	54	0	1
SI_	54	0	1	96	48	4
TAP	54	48	0
TAP	54	96	1
TAP	54	96	7
TAP	54	144	6
TAP	54	192	1
TAP	54	192	5
TAP	54	240	1
TAP	54	256	2
TAP	54	272	3
TAP	54	288	4
TAP	54	336	6
STR	55	0	5
SI_	55	0	5	96	48	1
TAP	55	48	5
STR	55	96	0
SI_	55	96	0	96	48	4
STR	55	192	0
SCL	55	192	0	96	48	5
STR	55	288	0
SCR	55	288	0	96	48	3
STR	56	0	4
SI_	56	0	4	96	48	0
STR	56	96	4
SCL	56	96	4	96	48	1
TAP	56	192	4
TAP	56	288	6
TAP	56	336	7
BRK	57	0	0
BRK	57	0	2
TAP	57	48	3
TAP	57	96	4
STR	57	96	6
SCL	57	96	6	96	48	3
TAP	57	192	2
TAP	57	192	6
TAP	57	288	1
TAP	57	336	0
TAP	58	0	5
TAP	58	0	7
TAP	58	48	4
STR	58	96	1
SCR	58	96	1	96	48	4
TAP	58	96	3
TAP	58	192	1
TAP	58	192	5
TAP	58	240	6
STR	58	288	7
SCL	58	288	7	96	48	4
TAP	58	336	0
STR	59	0	1
SCR	59	0	1	96	48	4
TAP	59	0	7
TAP	59	96	1
STR	59	192	7
SI_	59	192	7	96	96	3
STR	59	288	3
SXL	59	288	3	96	192	7
SXR	59	288	3	96	192	7
TAP	60	288	1
TAP	60	288	3
TAP	60	336	0
TAP	61	0	5
TAP	61	0	7
TAP	61	48	4
STR	61	96	1
SCR	61	96	1	96	48	4
TAP	61	96	3
TAP	61	192	1
TAP	61	192	5
TAP	61	288	6
TAP	61	336	7
TAP	62	0	0
TAP	62	0	2
TAP	62	48	3
TAP	62	96	4
STR	62	96	6
SCL	62	96	6	96	48	3
TAP	62	192	2
TAP	62	192	6
TAP	62	240	1
STR	62	288	0
SCR	62	288	0	96	48	3
TAP	62	336	7
TAP	63	0	0
STR	63	0	6
SCL	63	0	6	96	48	3
TAP	63	96	6
STR	63	192	0
SI_	63	192	0	96	96	4
STR	63	288	4
SCR	63	288	4	96	192	3
TAP	64	0	7
TAP	64	240	4
TAP	64	288	5
TAP	64	336	6
BRK	65	0	3
BRK	65	0	7
TAP	65	48	2
TAP	65	48	6
STR	65	96	1
SI_	65	96	1	96	48	4
TAP	65	96	5
TAP	65	192	1
TAP	65	192	7
TAP	65	240	6
STR	65	288	5
SCR	65	288	5	96	72	1
TAP	65	336	3
STR	66	0	1
SUL	66	0	1	96	72	5
TAP	66	96	3
TAP	66	192	4
TAP	66	240	3
TAP	66	288	2
TAP	66	288	6
TAP	66	336	1
TAP	67	0	0
TAP	67	0	4
TAP	67	48	1
TAP	67	48	5
TAP	67	96	2
STR	67	96	6
SI_	67	96	6	96	48	3
TAP	67	192	0
TAP	67	192	6
TAP	67	240	1
STR	67	288	2
SCL	67	288	2	96	96	6
TAP	67	336	4
STR	68	0	6
SUR	68	0	6	96	72	2
TAP	68	96	4
TAP	68	192	0
TAP	68	240	7
TAP	68	288	2
TAP	68	288	6
TAP	68	336	5
TAP	69	0	0
TAP	69	0	4
TAP	69	48	1
TAP	69	48	5
STR	69	96	2
SCR	69	96	2	96	48	5
TAP	69	96	6
TAP	69	192	2
TAP	69	192	6
TAP	69	240	7
TAP	69	288	0
TAP	69	336	2
STR	69	336	6
SI_	69	336	6	96	48	2
STR	70	48	0
SI_	70	48	0	96	48	4
TAP	70	48	6
TAP	70	96	0
STR	70	144	3
SI_	70	144	3	96	48	7
TAP	70	192	3
TAP	70	240	0
TAP	70	288	1
TAP	70	336	2
TAP	71	0	3
TAP	71	0	7
TAP	71	48	2
TAP	71	48	6
STR	71	96	1
SCL	71	96	1	96	48	6
TAP	71	96	5
TAP	71	192	1
TAP	71	192	5
TAP	71	240	4
TAP	71	288	3
TAP	71	336	1
TAP	71	336	5
TAP	72	0	6
TAP	72	24	4
TAP	72	48	5
TAP	72	96	0
TAP	72	120	3
TAP	72	144	2
TAP	72	192	7
TAP	72	216	3
TAP	72	240	5
BRK	72	288	0
BRK	72	288	4
BRK	73	0	3
BRK	73	0	7
TAP	73	48	2
TAP	73	48	6
STR	73	96	1
SI_	73	96	1	96	48	4
TAP	73	96	5
TAP	73	192	1
TAP	73	192	7
TAP	73	240	6
STR	73	288	5
SCR	73	288	5	96	96	1
TAP	73	336	3
STR	74	0	1
SUL	74	0	1	96	72	5
TAP	74	96	3
TAP	74	192	7
TAP	74	240	0
TAP	74	288	1
TAP	74	288	5
TAP	74	336	2
TAP	75	0	3
TAP	75	0	7
TAP	75	48	2
TAP	75	48	6
TAP	75	96	1
STR	75	96	5
SCL	75	96	5	96	48	2
TAP	75	192	1
TAP	75	192	5
TAP	75	240	0
TAP	75	288	7
STR	75	336	1
SI_	75	336	1	96	48	5
TAP	75	336	5
TAP	76	48	1
STR	76	48	7
SI_	76	48	7	96	48	3
TAP	76	96	7
STR	76	144	4
SI_	76	144	4	96	48	0
TAP	76	192	4
TAP	76	240	7
TAP	76	288	6
TAP	76	336	5
TAP	77	0	0
TAP	77	0	4
TAP	77	48	1
TAP	77	48	5
TAP	77	96	2
STR	77	96	6
SCR	77	96	6	96	48	1
TAP	77	192	2
TAP	77	192	6
TAP	77	240	3
TAP	77	288	4
TAP	77	336	2
TAP	77	336	6
TAP	78	48	2
TAP	78	48	6
TAP	78	96	1
TAP	78	96	5
TAP	78	144	0
TAP	78	144	4
STR	78	192	3
SI_	78	192	3	96	48	6
STR	78	192	7
SI_	78	192	7	96	48	2
BRK	78	288	3
BRK	78	288	7
TAP	79	0	7
TAP	79	24	0
TAP	79	48	7
TAP	79	72	0
TAP	79	96	7
TAP	79	120	1
TAP	79	144	7
TAP	79	168	1
TAP	79	192	7
TAP	79	216	2
TAP	79	240	7
TAP	79	264	2
TAP	79	288	7
TAP	79	312	3
TAP	79	336	7
TAP	79	360	3
TAP	80	0	7
TAP	80	24	6
TAP	80	48	5
TAP	80	72	4
TAP	80	96	7
TAP	80	120	0
TAP	80	144	1
TAP	80	168	2
TAP	80	192	7
TAP	80	216	6
TAP	80	240	5
TAP	80	264	4
TAP	80	288	3
TAP	80	312	2
TAP	80	336	1
TAP	80	360	0
TAP	81	0	3
TAP	81	24	7
TAP	81	48	3
TAP	81	72	7
TAP	81	96	3
TAP	81	120	6
TAP	81	144	3
TAP	81	168	6
TAP	81	192	3
TAP	81	216	5
TAP	81	240	3
TAP	81	264	5
TAP	81	288	3
TAP	81	312	4
TAP	81	336	3
TAP	81	360	4
TAP	82	0	3
TAP	82	24	2
TAP	82	48	1
TAP	82	72	0
TAP	82	96	3
TAP	82	120	4
TAP	82	144	5
TAP	82	168	6
TAP	82	192	3
TAP	82	216	2
TAP	82	240	1
TAP	82	264	0
TAP	82	288	7
TAP	82	312	6
TAP	82	336	5
TAP	82	360	4
TAP	83	0	7
TAP	83	24	2
TAP	83	48	7
TAP	83	72	2
TAP	83	96	6
TAP	83	120	1
TAP	83	144	6
TAP	83	168	1
TAP	83	192	5
TAP	83	216	0
TAP	83	240	5
TAP	83	264	0
TAP	83	288	4
TAP	83	312	7
TAP	83	336	4
TAP	83	360	7
TAP	84	0	4
TAP	84	24	5
TAP	84	48	6
TAP	84	72	7
TAP	84	96	3
TAP	84	120	2
TAP	84	144	1
TAP	84	168	0
TAP	84	192	4
TAP	84	216	5
TAP	84	240	6
TAP	84	264	7
TAP	84	288	0
TAP	84	312	1
TAP	84	336	2
TAP	84	360	3
TAP	85	0	0
TAP	85	24	5
TAP	85	48	0
TAP	85	72	5
TAP	85	96	1
TAP	85	120	6
TAP	85	144	1
TAP	85	168	6
TAP	85	192	2
TAP	85	216	7
TAP	85	240	2
TAP	85	264	7
TAP	85	288	3
TAP	85	312	0
TAP	85	336	3
TAP	85	360	0
TAP	86	0	3
TAP	86	24	2
TAP	86	48	1
TAP	86	72	0
TAP	86	96	4
TAP	86	120	5
TAP	86	144	6
TAP	86	168	7
TAP	86	192	3
TAP	86	216	2
TAP	86	240	1
TAP	86	264	0
TAP	86	288	7
TAP	86	312	6
TAP	86	336	5
TAP	86	360	4
BRK	87	0	6
TAP	87	24	2
TAP	87	48	6
TAP	87	72	2
TAP	87	96	5
TAP	87	120	1
TAP	87	144	5
TAP	87	168	1
TAP	87	192	4
TAP	87	216	0
TAP	87	240	4
TAP	87	264	0
TAP	87	288	3
TAP	87	312	7
TAP	87	336	3
TAP	87	360	7
TAP	88	0	3
TAP	88	24	4
TAP	88	48	5
TAP	88	72	6
TAP	88	96	3
TAP	88	120	2
TAP	88	144	1
TAP	88	168	0
TAP	88	192	4
TAP	88	216	5
TAP	88	240	6
TAP	88	264	7
TAP	88	288	0
TAP	88	312	1
TAP	88	336	2
TAP	88	360	3
TAP	89	0	1
TAP	89	24	5
TAP	89	48	1
TAP	89	72	5
TAP	89	96	2
TAP	89	120	6
TAP	89	144	2
TAP	89	168	6
TAP	89	192	3
TAP	89	216	7
TAP	89	240	3
TAP	89	264	7
TAP	89	288	4
TAP	89	312	0
TAP	89	336	4
TAP	89	360	0
TAP	90	0	4
TAP	90	24	3
TAP	90	48	2
TAP	90	72	1
TAP	90	96	4
TAP	90	120	5
TAP	90	144	6
TAP	90	168	7
TAP	90	192	3
TAP	90	216	2
TAP	90	240	1
TAP	90	264	0
TAP	90	288	7
TAP	90	312	6
TAP	90	336	5
TAP	90	360	4
BRK	91	0	7
TAP	91	24	2
TAP	91	48	7
TAP	91	72	2
TAP	91	96	7
TAP	91	108	6
TAP	91	120	5
TAP	91	132	4
BRK	91	192	0
TAP	91	216	5
TAP	91	240	0
TAP	91	264	5
TAP	91	288	0
TAP	91	300	1
TAP	91	312	2
TAP	91	324	3
BRK	92	0	4
TAP	92	24	3
TAP	92	48	5
TAP	92	72	2
TAP	92	96	6
TAP	92	120	1
TAP	92	144	7
TAP	92	168	0
BRK	92	192	6
TAP	92	204	5
TAP	92	216	4
TAP	92	228	3
TAP	92	240	2
TAP	92	252	1
TAP	92	264	0
TAP	92	276	7
BRK	92	288	2
BRK	92	288	6
TAP	93	0	5
TAP	93	48	4
TAP	93	96	3
TAP	93	96	6
TAP	93	144	2
TAP	93	192	5
TAP	93	240	4
TAP	93	288	3
TAP	93	288	6
TAP	93	336	2
STR	94	0	7
SCL	94	0	7	96	96	4
STR	94	96	4
SI_	94	96	4	96	96	0
STR	94	192	0
SI_	94	192	0	96	48	6
TAP	94	288	1
TAP	95	0	2
TAP	95	48	3
TAP	95	96	1
TAP	95	96	4
TAP	95	144	5
TAP	95	192	2
TAP	95	240	3
TAP	95	288	1
TAP	95	288	4
TAP	95	336	5
STR	96	0	0
SCR	96	0	0	96	96	3
STR	96	96	3
SI_	96	96	3	96	96	7
STR	96	192	7
SI_	96	192	7	96	48	1
TAP	96	288	6
TAP	97	0	2
TAP	97	0	6
TAP	97	48	3
TAP	97	48	5
TAP	97	96	2
TAP	97	96	6
TAP	97	144	1
TAP	97	144	7
TAP	97	192	2
TAP	97	192	6
TAP	97	240	4
TAP	97	240	5
TAP	97	288	2
TAP	97	288	6
TAP	97	336	0
TAP	97	336	1
TAP	98	0	1
TAP	98	0	5
TAP	98	48	2
TAP	98	48	4
TAP	98	96	1
TAP	98	96	5
TAP	98	144	0
TAP	98	144	6
TAP	98	192	1
TAP	98	192	5
TAP	98	240	2
TAP	98	240	3
TAP	98	288	1
TAP	98	288	5
TAP	98	336	6
TAP	98	336	7
BRK	99	0	6
TAP	99	24	0
TAP	99	48	6
TAP	99	72	0
TAP	99	96	6
TAP	99	108	5
TAP	99	120	4
TAP	99	132	3
BRK	99	192	1
TAP	99	216	7
TAP	99	240	1
TAP	99	264	7
TAP	99	288	1
TAP	99	300	2
TAP	99	312	3
TAP	99	324	4
BRK	100	0	5
TAP	100	24	4
TAP	100	48	6
TAP	100	72	3
TAP	100	96	7
TAP	100	120	2
TAP	100	144	0
TAP	100	168	1
BRK	100	192	7
TAP	100	204	6
TAP	100	216	5
TAP	100	228	4
TAP	100	240	3
TAP	100	252	2
TAP	100	264	1
TAP	100	276	0
BRK	100	288	7
TAP	100	300	6
TAP	100	312	5
TAP	100	324	4
TAP	100	336	3
TAP	100	348	2
TAP	100	360	1
TAP	100	372	0
BST	101	0	3
SCR	101	0	3	96	576	0
BRK	101	0	7
STR	103	0	0
SSL	103	0	0	96	576	4

T_REC_TAP	752
T_REC_BRK	24
T_REC_XTP	0
T_REC_HLD	8
T_REC_XHO	0
T_REC_STR	75
T_REC_BST	4
T_REC_XST	0
T_REC_TTP	0
T_REC_THO	0
T_REC_SLD	82
T_REC_ALL	945
T_NUM_TAP	827
T_NUM_BRK	28
T_NUM_HLD	8
T_NUM_SLD	82
T_NUM_ALL	945
T_JUDGE_TAP	855
T_JUDGE_HLD	108
T_JUDGE_SLD	82
T_JUDGE_ALL	1045
TTM_EACHPAIRS	113
TTM_SCR_TAP	413500
TTM_SCR_BRK	72800
TTM_SCR_HLD	8000
TTM_SCR_SLD	123000
TTM_SCR_ALL	617300
TTM_SCR_S	596100
TTM_SCR_SS	614500
TTM_RAT_ACV	10045

