VERSION	0.00.00	1.03.00
FES_MODE	0
BPM_DEF	192.000	192.000	192.000	192.000
MET_DEF	4	4
RESOLUTION	384
CLK_DEF	384
COMPATIBLE_CODE	MA2

BPM	0	0	192.000

TAP	4	0	2
TAP	4	48	4
TAP	4	96	3
TAP	4	144	5
TAP	4	192	2
TAP	4	240	4
TAP	4	288	3
TAP	4	336	5
TAP	5	0	1
TAP	5	48	4
TAP	5	96	2
TAP	5	144	5
TAP	5	192	3
TAP	5	240	6
TAP	5	288	4
TAP	5	336	4
TAP	6	0	5
TAP	6	48	3
TAP	6	96	4
TAP	6	144	2
TAP	6	192	5
TAP	6	240	3
TAP	6	288	4
TAP	6	336	2
TAP	7	0	6
TAP	7	48	3
TAP	7	96	5
TAP	7	144	2
TAP	7	192	4
TAP	7	240	1
TAP	7	288	3
TAP	7	336	3
HLD	8	0	1	384
TAP	8	96	3
TAP	8	144	3
TAP	8	192	3
TAP	8	288	4
HLD	9	0	6	384
TAP	9	96	4
TAP	9	144	4
TAP	9	192	4
TAP	9	288	3
HLD	10	0	1	384
TAP	10	96	3
TAP	10	144	3
TAP	10	192	3
TAP	10	288	4
HLD	11	0	6	384
TAP	11	96	4
TAP	11	144	4
TAP	11	192	4
TAP	11	288	3
HLD	12	0	2	384
TAP	12	96	3
TAP	12	144	3
TAP	12	192	3
TAP	12	288	4
HLD	13	0	5	384
TAP	13	96	4
TAP	13	144	4
TAP	13	192	4
TAP	13	288	3
HLD	14	0	2	384
TAP	14	96	3
TAP	14	144	3
TAP	14	192	3
TAP	14	288	4
STR	15	0	5
SCR	15	0	5	96	192	2
TAP	16	0	1
STR	16	48	1
SI_	16	48	1	96	48	4
STR	16	144	5
SI_	16	144	5	96	48	0
STR	16	240	1
SI_	16	240	1	96	48	4
TAP	16	336	7
TAP	17	0	7
STR	17	48	6
SI_	17	48	6	96	48	3
STR	17	144	2
SI_	17	144	2	96	48	7
STR	17	240	6
SI_	17	240	6	96	48	3
TAP	17	336	0
TAP	18	0	0
STR	18	48	1
SI_	18	48	1	96	48	4
STR	18	144	5
SI_	18	144	5	96	48	0
STR	18	240	1
SI_	18	240	1	96	48	4
TAP	18	336	7
TAP	19	0	7
STR	19	48	6
SI_	19	48	6	96	48	3
STR	19	144	2
SI_	19	144	2	96	48	7
STR	19	240	6
SI_	19	240	6	96	48	3
TAP	19	336	0
TAP	20	0	0
STR	20	48	1
SI_	20	48	1	96	48	4
STR	20	144	5
SI_	20	144	5	96	48	0
STR	20	240	1
SI_	20	240	1	96	48	5
TAP	20	336	7
TAP	21	0	7
STR	21	48	6
SI_	21	48	6	96	48	3
STR	21	144	2
SI_	21	144	2	96	48	7
STR	21	240	6
SI_	21	240	6	96	48	2
TAP	21	336	0
TAP	22	0	0
STR	22	48	1
SI_	22	48	1	96	48	4
STR	22	144	5
SI_	22	144	5	96	48	0
STR	22	240	1
SI_	22	240	1	96	48	5
TAP	22	336	7
TAP	23	0	7
STR	23	48	6
SI_	23	48	6	96	48	3
TAP	23	144	2
TAP	23	192	2
TAP	23	288	1
TAP	23	288	6
STR	24	0	0
SCR	24	0	0	96	1248	7
TAP	25	0	0
TAP	26	0	1
TAP	27	0	2
STR	28	0	7
SCL	28	0	7	96	1248	0
TAP	29	0	7
TAP	30	0	6
TAP	31	0	5
TAP	32	0	1
TAP	32	96	2
TAP	32	96	4
TAP	32	192	6
TAP	32	288	3
TAP	32	288	5
TAP	33	0	1
STR	33	96	0
SCR	33	96	0	96	96	3
TAP	33	192	4
TAP	33	288	4
TAP	34	0	6
TAP	34	96	3
TAP	34	96	5
TAP	34	192	1
TAP	34	288	2
TAP	34	288	4
TAP	35	0	6
STR	35	96	7
SCL	35	96	7	96	96	4
TAP	35	192	3
TAP	35	288	3
TAP	36	0	1
TAP	36	96	2
TAP	36	96	4
TAP	36	192	6
TAP	36	288	3
TAP	36	288	5
TAP	37	0	1
STR	37	96	0
SCR	37	96	0	96	96	3
TAP	37	192	4
TAP	37	288	4
HLD	38	0	6	96
HLD	38	96	4	96
HLD	38	192	3	96
TAP	38	288	1
TAP	39	0	0
TAP	39	0	7
TAP	39	96	3
TAP	39	96	4
TAP	39	192	2
TAP	39	192	5
STR	39	288	2
SUL	39	288	2	96	192	4
TAP	39	288	4
HLD	40	0	3	192
TAP	40	288	3
STR	40	288	5
SUR	40	288	5	96	192	3
HLD	41	0	4	192
TAP	41	288	3
TAP	41	288	5
HLD	42	0	2	96
HLD	42	0	4	96
HLD	42	192	3	96
HLD	42	192	5	96
HLD	43	0	2	192
TAP	43	0	4
TAP	43	192	3
TAP	43	288	0
STR	43	288	5
SUL	43	288	5	96	192	6
HLD	44	0	1	192
STR	44	288	2
SUR	44	288	2	96	192	1
TAP	44	288	7
HLD	45	0	6	192
TAP	45	288	2
TAP	45	288	4
HLD	46	0	3	96
HLD	46	0	5	96
HLD	46	192	2	96
HLD	46	192	4	96
TAP	47	0	3
HLD	47	0	5	192
TAP	47	192	4
HLD	48	0	3	144
HLD	48	0	4	144
TAP	48	192	3
TAP	48	192	4
BRK	48	288	1
BRK	48	288	6
STR	49	0	1
SI_	49	0	1	96	48	4
TAP	49	0	7
TAP	49	48	6
TAP	49	96	5
STR	49	192	1
SI_	49	192	1	96	48	4
TAP	49	192	7
TAP	49	240	6
TAP	49	288	5
STR	50	0	1
SI_	50	0	1	96	48	4
TAP	50	0	7
TAP	50	48	6
STR	50	96	5
SI_	50	96	5	96	48	0
TAP	50	192	0
TAP	50	288	1
TAP	50	288	6
TAP	51	0	0
STR	51	0	6
SI_	51	0	6	96	48	3
TAP	51	48	1
TAP	51	96	2
TAP	51	192	0
STR	51	192	6
SI_	51	192	6	96	48	3
TAP	51	240	1
TAP	51	288	2
TAP	52	0	0
STR	52	0	6
SI_	52	0	6	96	48	3
TAP	52	48	1
STR	52	96	2
SI_	52	96	2	96	48	7
TAP	52	192	7
TAP	52	288	1
TAP	52	288	6
STR	53	0	1
SI_	53	0	1	96	48	4
TAP	53	0	7
TAP	53	48	6
TAP	53	96	5
STR	53	192	1
SI_	53	192	1	96	48	4
TAP	53	192	7
TAP	53	240	6
TAP	53	288	5
STR	54	0	1
SI_	54	0	1	96	48	4
TAP	54	0	7
TAP	54	48	6
STR	54	96	5
SI_	54	96	5	96	48	0
TAP	54	192	0
TAP	54	288	1
TAP	54	288	6
STR	55	0	2
SI_	55	0	2	96	48	5
STR	55	96	6
SI_	55	96	6	96	48	1
STR	55	192	3
SI_	55	192	3	96	48	0
STR	55	288	7
SI_	55	288	7	96	48	4
STR	56	0	2
SI_	56	0	2	96	48	5
TAP	56	96	6
BRK	56	192	0
BRK	56	192	7
STR	56	288	3
SCL	56	288	3	96	192	5
TAP	56	288	7
HLD	57	0	4	192
TAP	57	288	0
STR	57	288	4
SCR	57	288	4	96	192	2
HLD	58	0	3	192
STR	58	288	1
SI_	58	288	1	96	48	5
TAP	58	288	5
TAP	59	0	7
TAP	59	96	2
STR	59	96	6
SI_	59	96	6	96	48	2
TAP	59	192	0
TAP	59	288	1
STR	59	288	5
SCR	59	288	5	96	192	2
TAP	60	0	3
STR	60	288	0
SCR	60	288	0	96	192	6
TAP	60	288	4
HLD	61	0	7	192
TAP	61	288	3
STR	61	288	7
SCL	61	288	7	96	192	1
HLD	62	0	0	192
STR	62	288	2
SI_	62	288	2	96	48	6
TAP	62	288	6
TAP	63	0	4
TAP	63	96	1
STR	63	96	5
SI_	63	96	5	96	48	1
TAP	63	192	3
STR	63	288	2
SCL	63	288	2	96	96	7
STR	63	288	6
SCL	63	288	6	96	96	3
TAP	64	192	0
TAP	64	192	7
TAP	64	240	1
TAP	64	240	6
STR	64	288	2
SI_	64	288	2	96	48	5
TAP	64	288	5
TAP	65	0	7
TAP	65	48	7
STR	65	96	6
SI_	65	96	6	96	48	3
TAP	65	192	0
TAP	65	240	0
TAP	65	288	1
STR	66	0	2
SI_	66	0	2	96	48	7
TAP	66	0	4
STR	66	96	6
SI_	66	96	6	96	48	3
STR	66	192	0
SI_	66	192	0	96	48	4
STR	66	288	5
SI_	66	288	5	96	48	2
TAP	67	0	0
TAP	67	48	0
STR	67	96	1
SI_	67	96	1	96	48	4
TAP	67	192	7
TAP	67	240	7
TAP	67	288	6
TAP	68	0	3
STR	68	0	5
SI_	68	0	5	96	48	0
STR	68	96	1
SI_	68	96	1	96	48	4
STR	68	192	7
SI_	68	192	7	96	48	3
STR	68	288	2
SI_	68	288	2	96	48	5
TAP	69	0	7
TAP	69	48	7
STR	69	96	6
SI_	69	96	6	96	48	3
TAP	69	192	0
TAP	69	240	0
TAP	69	288	1
STR	70	0	2
SI_	70	0	2	96	48	7
TAP	70	0	4
STR	70	96	6
SI_	70	96	6	96	48	3
TAP	70	192	0
TAP	70	288	2
STR	70	288	5
SCL	70	288	5	96	48	2
TAP	71	0	1
TAP	71	48	1
STR	71	96	0
SI_	71	96	0	96	48	3
TAP	71	192	5
TAP	71	240	5
TAP	71	288	6
TAP	72	0	3
STR	72	0	7
SI_	72	0	7	96	48	4
STR	72	96	1
SI_	72	96	1	96	48	6
STR	72	192	4
SI_	72	192	4	96	48	7
STR	72	288	2
SCR	72	288	2	96	48	5
TAP	73	0	6
TAP	73	48	6
STR	73	96	7
SI_	73	96	7	96	48	4
TAP	73	192	2
TAP	73	240	2
TAP	73	288	1
STR	74	0	0
SI_	74	0	0	96	48	3
TAP	74	0	4
STR	74	96	6
SI_	74	96	6	96	48	1
STR	74	192	3
SI_	74	192	3	96	48	0
STR	74	288	5
SCL	74	288	5	96	48	2
TAP	75	0	1
TAP	75	48	1
STR	75	96	0
SI_	75	96	0	96	48	3
TAP	75	192	5
TAP	75	240	5
TAP	75	288	6
TAP	76	0	3
STR	76	0	7
SI_	76	0	7	96	48	4
STR	76	96	1
SI_	76	96	1	96	48	6
STR	76	192	4
SI_	76	192	4	96	48	7
STR	76	288	2
SCR	76	288	2	96	48	5
TAP	77	0	6
TAP	77	48	6
STR	77	96	7
SI_	77	96	7	96	48	4
STR	77	192	2
SCL	77	192	2	96	288	5
TAP	77	288	4
TAP	77	336	4
TAP	78	288	2
TAP	78	288	5
STR	79	0	1
SI_	79	0	1	96	48	4
TAP	79	0	4
STR	79	96	6
SI_	79	96	6	96	48	3
STR	79	192	2
SI_	79	192	2	96	48	7
STR	79	288	5
SI_	79	288	5	96	48	0
STR	80	0	1
SI_	80	0	1	96	48	4
STR	80	96	6
SI_	80	96	6	96	48	3
TAP	80	192	2
TAP	80	240	2
TAP	80	288	1
TAP	80	288	3
TAP	81	0	3
STR	81	0	6
SI_	81	0	6	96	48	3
STR	81	96	1
SI_	81	96	1	96	48	4
STR	81	192	5
SI_	81	192	5	96	48	0
STR	81	288	2
SI_	81	288	2	96	48	7
STR	82	0	6
SI_	82	0	6	96	48	3
STR	82	96	1
SI_	82	96	1	96	48	4
TAP	82	192	5
TAP	82	240	5
TAP	82	288	4
TAP	82	288	6
STR	83	0	1
SI_	83	0	1	96	48	7
TAP	83	0	4
STR	83	96	5
SI_	83	96	5	96	48	3
STR	83	192	2
SI_	83	192	2	96	48	6
STR	83	288	5
SI_	83	288	5	96	48	1
STR	84	0	2
SI_	84	0	2	96	48	4
STR	84	96	6
SI_	84	96	6	96	48	0
TAP	84	192	2
TAP	84	240	2
TAP	84	288	1
TAP	84	288	3
TAP	85	0	3
STR	85	0	6
SI_	85	0	6	96	48	0
STR	85	96	2
SI_	85	96	2	96	48	4
STR	85	192	5
SI_	85	192	5	96	48	1
STR	85	288	2
SI_	85	288	2	96	48	6
STR	86	0	5
SI_	86	0	5	96	48	3
STR	86	96	1
SI_	86	96	1	96	48	7
TAP	86	192	5
TAP	86	240	5
TAP	86	288	4
TAP	86	288	6
STR	87	0	2
SI_	87	0	2	96	48	5
TAP	87	0	5
STR	87	96	7
SI_	87	96	7	96	48	4
STR	87	192	3
SI_	87	192	3	96	48	0
STR	87	288	6
SI_	87	288	6	96	48	1
STR	88	0	2
SI_	88	0	2	96	48	5
STR	88	96	7
SI_	88	96	7	96	48	4
TAP	88	192	2
TAP	88	240	2
TAP	88	288	1
TAP	88	288	3
STR	89	0	5
SI_	89	0	5	96	48	2
STR	89	96	0
SI_	89	96	0	96	48	3
STR	89	192	4
SI_	89	192	4	96	48	7
STR	89	288	1
SI_	89	288	1	96	48	6
STR	90	0	5
SI_	90	0	5	96	48	2
STR	90	96	0
SI_	90	96	0	96	48	3
TAP	90	192	5
TAP	90	240	5
TAP	90	288	4
TAP	90	288	6
STR	91	0	1
SI_	91	0	1	96	48	4
STR	91	0	5
SI_	91	0	5	96	48	0
STR	91	192	2
SI_	91	192	2	96	48	7
STR	91	192	6
SI_	91	192	6	96	48	3
TAP	92	0	0
TAP	92	24	7
TAP	92	48	0
TAP	92	72	7
TAP	92	96	0
TAP	92	120	7
TAP	92	144	0
TAP	92	168	7
TAP	92	192	0
TAP	92	288	1
TAP	92	288	6
HLD	93	0	5	96
HLD	93	96	7	96
HLD	93	192	0	96
STR	93	288	2
SI_	93	288	2	96	48	5
STR	94	0	6
SI_	94	0	6	96	48	1
STR	94	96	3
SI_	94	96	3	96	48	0
STR	94	192	7
SI_	94	192	7	96	48	4
TAP	94	288	3
HLD	95	0	2	96
HLD	95	96	0	96
HLD	95	192	7	96
STR	95	288	5
SI_	95	288	5	96	48	2
STR	96	0	1
SI_	96	0	1	96	48	6
STR	96	96	4
SI_	96	96	4	96	48	7
STR	96	192	0
SI_	96	192	0	96	48	3
TAP	96	288	4
TAP	97	0	5
TAP	97	48	5
TAP	97	96	7
TAP	97	144	7
TAP	97	192	0
TAP	97	240	0
STR	97	288	2
SI_	97	288	2	96	48	5
STR	98	0	6
SI_	98	0	6	96	48	1
STR	98	96	3
SI_	98	96	3	96	48	0
STR	98	192	7
SI_	98	192	7	96	48	4
TAP	98	288	3
TAP	99	0	2
TAP	99	48	2
TAP	99	96	0
TAP	99	144	0
TAP	99	192	7
TAP	99	240	7
STR	99	288	5
SI_	99	288	5	96	48	2
STR	100	0	1
SI_	100	0	1	96	48	6
STR	100	96	4
SI_	100	96	4	96	48	7
STR	100	192	0
SI_	100	192	0	96	48	3
STR	100	288	4
SCR	100	288	4	96	672	3
TAP	101	0	3
STR	103	0	4
SCR	103	0	4	96	576	3

T_REC_TAP	286
T_REC_BRK	4
T_REC_XTP	0
T_REC_HLD	36
T_REC_XHO	0
T_REC_STR	150
T_REC_BST	0
T_REC_XST	0
T_REC_TTP	0
T_REC_THO	0
T_REC_SLD	150
T_REC_ALL	626
T_NUM_TAP	436
T_NUM_BRK	4
T_NUM_HLD	36
T_NUM_SLD	150
T_NUM_ALL	626
T_JUDGE_TAP	440
T_JUDGE_HLD	136
T_JUDGE_SLD	150
T_JUDGE_ALL	726
TTM_EACHPAIRS	73
TTM_SCR_TAP	218000
TTM_SCR_BRK	10400
TTM_SCR_HLD	36000
TTM_SCR_SLD	225000
TTM_SCR_ALL	489400
TTM_SCR_S	474350
TTM_SCR_SS	489000
TTM_RAT_ACV	10008

