VERSION	0.00.00	1.03.00
FES_MODE	0
BPM_DEF	192.000	192.000	192.000	192.000
MET_DEF	4	4
RESOLUTION	384
CLK_DEF	384
COMPATIBLE_CODE	MA2

BPM	0	0	192.000

TAP	4	0	3
TAP	4	48	3
TAP	4	96	4
TAP	4	144	4
TAP	4	192	2
TAP	4	240	2
TAP	4	288	5
TAP	4	336	5
TAP	5	0	3
TAP	5	48	4
TAP	5	96	2
TAP	5	144	5
TAP	5	192	3
TAP	5	240	4
TAP	5	288	2
TAP	5	336	5
TAP	6	0	3
TAP	6	48	3
TAP	6	96	4
TAP	6	144	4
TAP	6	192	1
TAP	6	240	1
TAP	6	288	6
TAP	6	336	6
TAP	7	0	3
TAP	7	48	4
TAP	7	96	1
TAP	7	144	6
TAP	7	192	3
TAP	7	240	4
TAP	7	288	2
TAP	7	288	5
HLD	8	0	0	384
TAP	8	0	7
TAP	8	96	7
TAP	8	192	3
TAP	8	240	3
TAP	8	288	3
HLD	9	0	7	384
TAP	9	96	0
TAP	9	192	4
TAP	9	240	4
TAP	9	288	4
HLD	10	0	1	384
TAP	10	96	0
TAP	10	192	3
TAP	10	240	3
TAP	10	288	3
HLD	11	0	6	384
TAP	11	96	7
TAP	11	192	4
TAP	11	240	4
TAP	11	288	4
HLD	12	0	3	384
TAP	12	96	0
TAP	12	192	5
TAP	12	240	5
TAP	12	288	5
HLD	13	0	4	384
TAP	13	96	7
TAP	13	192	2
TAP	13	240	2
TAP	13	288	2
HLD	14	0	3	288
TAP	14	96	7
TAP	14	192	5
TAP	14	240	5
STR	14	288	5
SCR	14	288	5	96	288	2
TAP	16	0	0
HLD	16	0	1	96
TAP	16	96	3
TAP	16	192	2
TAP	16	192	3
TAP	16	288	1
TAP	16	288	4
HLD	17	0	6	96
TAP	17	0	7
TAP	17	96	4
TAP	17	192	4
TAP	17	192	5
TAP	17	288	3
TAP	17	288	6
TAP	18	0	0
HLD	18	0	1	96
TAP	18	96	3
TAP	18	192	2
TAP	18	192	3
TAP	18	288	1
TAP	18	288	4
TAP	19	0	5
TAP	19	48	5
TAP	19	96	4
TAP	19	96	6
TAP	19	192	2
TAP	19	240	2
TAP	19	288	1
TAP	19	288	3
HLD	20	0	6	96
TAP	20	0	7
TAP	20	96	4
TAP	20	192	4
TAP	20	192	5
TAP	20	288	3
TAP	20	288	6
TAP	21	0	0
HLD	21	0	1	96
TAP	21	96	3
TAP	21	192	2
TAP	21	192	3
TAP	21	288	1
TAP	21	288	4
HLD	22	0	6	96
TAP	22	0	7
TAP	22	96	4
TAP	22	192	4
TAP	22	192	5
TAP	22	288	3
TAP	22	288	6
TAP	23	0	3
TAP	23	0	4
TAP	23	96	0
TAP	23	96	7
TAP	23	192	1
TAP	23	192	6
BST	24	0	0
SCR	24	0	0	96	480	6
HLD	24	0	7	576
HLD	26	0	0	576
STR	26	0	7
SCL	26	0	7	96	480	1
STR	28	0	3
SCL	28	0	3	96	480	5
HLD	28	0	4	576
HLD	30	0	3	576
STR	30	0	4
SCR	30	0	4	96	480	2
TAP	32	0	3
HLD	32	0	4	192
HLD	32	192	3	192
TAP	33	0	4
TAP	33	96	5
TAP	33	192	3
TAP	33	288	2
HLD	34	0	2	192
TAP	34	0	3
HLD	34	192	3	192
TAP	35	0	2
TAP	35	96	1
TAP	35	192	4
TAP	35	288	5
TAP	36	0	4
HLD	36	0	5	192
HLD	36	192	4	192
TAP	37	0	5
TAP	37	96	6
TAP	37	192	3
TAP	37	288	2
HLD	38	0	1	192
HLD	38	192	3	192
TAP	39	0	4
TAP	39	96	4
TAP	39	192	2
TAP	39	192	5
TAP	39	288	3
STR	40	0	3
SI_	40	0	3	96	96	0
TAP	40	288	7
STR	41	0	7
SI_	41	0	7	96	96	4
TAP	41	288	2
HLD	42	0	2	192
TAP	42	192	3
TAP	42	288	4
HLD	43	0	5	192
TAP	43	192	4
TAP	43	288	3
STR	44	0	4
SI_	44	0	4	96	96	7
TAP	44	288	0
STR	45	0	0
SI_	45	0	0	96	96	3
TAP	45	288	5
HLD	46	0	5	192
TAP	46	192	4
TAP	46	288	3
STR	47	0	2
SCL	47	0	2	96	192	5
HLD	48	0	0	192
HLD	48	0	7	192
BRK	48	288	1
BRK	48	288	6
TAP	49	0	0
TAP	49	0	1
TAP	49	48	2
TAP	49	96	3
TAP	49	96	7
TAP	49	192	6
TAP	49	192	7
TAP	49	240	5
TAP	49	288	0
TAP	49	288	4
TAP	50	0	1
TAP	50	48	1
TAP	50	96	3
TAP	50	144	3
TAP	50	192	2
TAP	50	240	3
TAP	50	288	1
TAP	50	288	4
TAP	51	0	6
TAP	51	0	7
TAP	51	48	5
TAP	51	96	0
TAP	51	96	4
TAP	51	192	0
TAP	51	192	1
TAP	51	240	2
TAP	51	288	3
TAP	51	288	7
TAP	52	0	6
TAP	52	48	6
TAP	52	96	4
TAP	52	144	4
TAP	52	192	5
TAP	52	240	4
TAP	52	288	3
TAP	52	288	6
TAP	53	0	0
TAP	53	0	1
TAP	53	48	2
TAP	53	96	3
TAP	53	96	7
TAP	53	192	6
TAP	53	192	7
TAP	53	240	5
TAP	53	288	0
TAP	53	288	4
TAP	54	0	1
TAP	54	48	1
TAP	54	96	3
TAP	54	144	3
TAP	54	192	2
TAP	54	240	3
TAP	54	288	1
TAP	54	288	4
TAP	55	0	4
TAP	55	0	5
TAP	55	96	6
TAP	55	96	7
TAP	55	192	0
TAP	55	192	1
TAP	55	288	2
TAP	55	288	3
TAP	56	0	0
TAP	56	0	7
TAP	56	96	3
TAP	56	96	4
TAP	56	192	1
TAP	56	192	6
STR	56	288	4
SCL	56	288	4	96	192	7
HLD	56	288	5	288
HLD	57	288	2	288
STR	57	288	3
SCR	57	288	3	96	192	0
TAP	58	288	3
TAP	58	288	4
STR	59	0	1
SI_	59	0	1	96	96	5
STR	59	192	6
SI_	59	192	6	96	96	2
HLD	60	0	0	96
TAP	60	96	7
TAP	60	192	1
TAP	60	192	6
HLD	60	288	2	288
STR	60	288	3
SCR	60	288	3	96	192	0
STR	61	288	4
SCL	61	288	4	96	192	7
HLD	61	288	5	288
TAP	62	288	3
TAP	62	288	4
STR	63	0	6
SI_	63	0	6	96	96	2
STR	63	192	1
SI_	63	192	1	96	96	5
BRK	64	0	7
TAP	64	192	3
TAP	64	192	4
TAP	64	240	3
TAP	64	240	4
TAP	64	288	3
TAP	64	288	4
TAP	65	0	5
TAP	65	48	5
TAP	65	96	4
TAP	65	96	6
TAP	65	192	0
TAP	65	192	7
TAP	65	240	1
TAP	65	288	0
TAP	65	288	2
TAP	66	0	2
TAP	66	0	3
TAP	66	96	4
TAP	66	96	5
TAP	66	192	3
TAP	66	192	6
TAP	66	288	1
TAP	66	288	4
TAP	67	0	2
TAP	67	48	2
TAP	67	96	1
TAP	67	96	3
TAP	67	192	0
TAP	67	192	7
TAP	67	240	6
TAP	67	288	5
TAP	67	288	7
TAP	68	0	4
TAP	68	0	5
TAP	68	96	2
TAP	68	96	3
TAP	68	192	1
TAP	68	192	4
TAP	68	288	3
TAP	68	288	6
TAP	69	0	5
TAP	69	48	5
TAP	69	96	4
TAP	69	96	6
TAP	69	192	0
TAP	69	192	7
TAP	69	240	1
TAP	69	288	0
TAP	69	288	2
TAP	70	0	2
TAP	70	0	3
TAP	70	96	4
TAP	70	96	5
TAP	70	192	3
TAP	70	192	6
TAP	70	288	1
TAP	70	288	4
TAP	71	0	2
TAP	71	48	2
TAP	71	96	1
TAP	71	96	3
TAP	71	192	0
TAP	71	192	7
TAP	71	240	6
TAP	71	288	5
TAP	71	288	7
TAP	72	0	4
TAP	72	0	5
TAP	72	96	2
TAP	72	96	3
TAP	72	192	1
TAP	72	192	4
TAP	72	288	3
TAP	72	288	6
TAP	73	0	1
TAP	73	48	1
TAP	73	96	0
TAP	73	96	2
TAP	73	192	2
TAP	73	192	3
TAP	73	240	4
TAP	73	288	3
HLD	73	288	5	96
HLD	74	0	7	96
HLD	74	96	0	96
HLD	74	192	2	96
TAP	74	288	5
TAP	75	0	6
TAP	75	48	6
TAP	75	96	5
TAP	75	96	7
TAP	75	192	4
TAP	75	192	5
TAP	75	240	3
HLD	75	288	2	96
TAP	75	288	4
HLD	76	0	0	96
HLD	76	96	7	96
HLD	76	192	5	96
TAP	76	288	2
HLD	77	0	0	192
TAP	77	192	7
TAP	77	288	1
TAP	77	288	6
TAP	77	336	1
TAP	77	336	6
TAP	78	48	3
TAP	78	48	4
TAP	78	96	3
TAP	78	96	4
TAP	78	192	3
TAP	78	192	4
TAP	78	288	3
TAP	78	288	4
TAP	79	0	3
TAP	79	48	3
TAP	79	96	4
TAP	79	144	4
TAP	79	192	0
TAP	79	240	0
TAP	79	288	6
TAP	79	336	6
TAP	80	0	2
TAP	80	48	4
TAP	80	96	3
TAP	80	144	5
TAP	80	192	1
TAP	80	240	3
TAP	80	288	2
TAP	80	288	4
TAP	81	0	4
TAP	81	48	4
TAP	81	96	3
TAP	81	144	3
TAP	81	192	7
TAP	81	240	7
TAP	81	288	1
TAP	81	336	1
TAP	82	0	5
TAP	82	48	3
TAP	82	96	4
TAP	82	144	2
TAP	82	192	6
TAP	82	240	4
TAP	82	288	3
TAP	82	288	5
TAP	83	0	7
TAP	83	48	7
TAP	83	96	0
TAP	83	144	0
TAP	83	192	4
TAP	83	240	4
TAP	83	288	2
TAP	83	336	2
TAP	84	0	6
TAP	84	48	0
TAP	84	96	7
TAP	84	144	1
TAP	84	192	5
TAP	84	240	7
TAP	84	288	0
TAP	84	288	6
TAP	85	0	0
TAP	85	48	0
TAP	85	96	7
TAP	85	144	7
TAP	85	192	3
TAP	85	240	3
TAP	85	288	5
TAP	85	336	5
TAP	86	0	1
TAP	86	48	7
TAP	86	96	0
TAP	86	144	6
TAP	86	192	2
TAP	86	240	0
TAP	86	288	1
TAP	86	288	7
TAP	87	0	2
TAP	87	48	2
TAP	87	96	4
TAP	87	144	4
TAP	87	192	0
TAP	87	240	0
TAP	87	288	3
TAP	87	336	3
TAP	88	0	1
TAP	88	48	7
TAP	88	96	2
TAP	88	144	7
TAP	88	192	0
TAP	88	240	6
TAP	88	288	5
TAP	88	288	7
TAP	89	0	5
TAP	89	48	5
TAP	89	96	3
TAP	89	144	3
TAP	89	192	7
TAP	89	240	7
TAP	89	288	4
TAP	89	336	4
TAP	90	0	6
TAP	90	48	0
TAP	90	96	5
TAP	90	144	0
TAP	90	192	7
TAP	90	240	1
TAP	90	288	0
TAP	90	288	2
STR	91	0	7
SCL	91	0	7	96	96	4
STR	91	192	0
SCR	91	192	0	96	96	3
STR	92	0	7
SCL	92	0	7	96	192	0
HLD	93	0	2	288
TAP	93	0	3
TAP	93	96	3
TAP	93	192	3
TAP	93	288	3
TAP	94	0	3
HLD	94	0	6	288
TAP	94	96	4
TAP	94	192	5
TAP	94	288	7
TAP	95	0	4
HLD	95	0	5	288
TAP	95	96	4
TAP	95	192	4
TAP	95	288	4
HLD	96	0	1	288
TAP	96	0	4
TAP	96	96	3
TAP	96	192	2
TAP	96	288	0
TAP	97	0	7
TAP	97	48	7
TAP	97	96	0
TAP	97	144	0
TAP	97	192	6
TAP	97	240	6
TAP	97	288	7
TAP	97	336	7
TAP	98	0	0
TAP	98	0	6
TAP	98	96	4
TAP	98	96	5
TAP	98	192	2
TAP	98	192	3
TAP	98	288	1
TAP	98	288	7
TAP	99	0	0
TAP	99	48	0
TAP	99	96	7
TAP	99	144	7
TAP	99	192	1
TAP	99	240	1
TAP	99	288	0
TAP	99	336	0
TAP	100	0	1
TAP	100	0	7
TAP	100	96	2
TAP	100	96	3
TAP	100	192	4
TAP	100	192	5
TAP	100	288	0
TAP	100	288	6
STR	101	0	7
SCL	101	0	7	96	480	0
STR	103	0	7
SCL	103	0	7	96	480	0

T_REC_TAP	464
T_REC_BRK	3
T_REC_XTP	0
T_REC_HLD	48
T_REC_XHO	0
T_REC_STR	22
T_REC_BST	1
T_REC_XST	0
T_REC_TTP	0
T_REC_THO	0
T_REC_SLD	23
T_REC_ALL	561
T_NUM_TAP	486
T_NUM_BRK	4
T_NUM_HLD	48
T_NUM_SLD	23
T_NUM_ALL	561
T_JUDGE_TAP	490
T_JUDGE_HLD	236
T_JUDGE_SLD	23
T_JUDGE_ALL	749
TTM_EACHPAIRS	125
TTM_SCR_TAP	243000
TTM_SCR_BRK	10400
TTM_SCR_HLD	48000
TTM_SCR_SLD	34500
TTM_SCR_ALL	335900
TTM_SCR_S	325450
TTM_SCR_SS	335500
TTM_RAT_ACV	10011

