VERSION	0.00.00	1.03.00
FES_MODE	0
BPM_DEF	192.000	192.000	192.000	192.000
MET_DEF	4	4
RESOLUTION	384
CLK_DEF	384
COMPATIBLE_CODE	MA2

BPM	0	0	192.000

TAP	4	0	2
TAP	4	96	2
TAP	4	192	3
TAP	5	0	5
TAP	5	96	5
TAP	5	192	4
TAP	6	0	2
TAP	6	96	2
TAP	6	192	3
TAP	7	0	5
TAP	7	96	5
TAP	7	192	4
HLD	8	0	2	192
TAP	8	192	3
HLD	9	0	5	192
TAP	9	192	4
HLD	10	0	2	192
TAP	10	192	3
HLD	11	0	5	192
TAP	11	192	4
STR	12	0	4
SI_	12	0	4	96	192	7
STR	13	0	3
SI_	13	0	3	96	192	0
STR	14	0	7
SI_	14	0	7	96	192	4
STR	15	0	0
SI_	15	0	0	96	192	3
TAP	16	0	4
TAP	16	96	4
TAP	16	192	5
TAP	17	0	3
TAP	17	96	3
TAP	17	192	2
TAP	18	0	1
TAP	18	96	0
TAP	18	192	6
TAP	18	288	7
STR	19	0	7
SI_	19	0	7	96	192	4
TAP	20	0	3
TAP	20	96	3
TAP	20	192	2
TAP	21	0	4
TAP	21	96	4
TAP	21	192	5
TAP	22	0	2
TAP	22	96	3
TAP	22	192	5
TAP	22	288	4
STR	23	0	3
SI_	23	0	3	96	192	0
HLD	24	0	7	384
HLD	25	0	6	384
HLD	26	0	5	384
HLD	27	0	4	384
HLD	28	0	3	384
HLD	29	0	2	384
HLD	30	0	1	384
HLD	31	0	0	192
TAP	31	192	7
TAP	32	0	6
TAP	32	192	6
TAP	33	0	7
TAP	33	96	7
TAP	33	192	7
TAP	34	0	1
TAP	34	192	1
TAP	35	0	0
TAP	35	96	0
TAP	35	192	0
TAP	36	0	0
TAP	36	0	7
TAP	36	192	0
TAP	36	192	7
TAP	37	0	7
TAP	37	96	0
TAP	37	192	7
TAP	38	0	1
TAP	38	0	6
TAP	38	192	1
TAP	38	192	6
TAP	39	0	0
TAP	39	96	7
TAP	39	192	0
HLD	40	0	2	384
HLD	41	0	3	384
HLD	42	0	4	384
TAP	43	0	5
HLD	44	0	6	384
HLD	45	0	7	384
HLD	46	0	0	384
TAP	47	0	1
STR	48	0	0
SI_	48	0	0	96	192	3
STR	48	0	7
SI_	48	0	7	96	192	4
TAP	49	0	2
TAP	49	96	3
TAP	49	192	2
TAP	49	192	3
TAP	49	288	2
TAP	49	288	3
TAP	50	0	2
TAP	50	96	3
TAP	50	192	1
TAP	50	192	4
TAP	51	0	5
TAP	51	96	4
TAP	51	192	4
TAP	51	192	5
TAP	51	288	4
TAP	51	288	5
TAP	52	0	5
TAP	52	96	4
TAP	52	192	3
TAP	52	192	6
TAP	53	0	6
TAP	53	96	7
TAP	53	192	6
TAP	53	192	7
TAP	53	288	6
TAP	53	288	7
TAP	54	0	6
TAP	54	96	7
TAP	54	192	0
TAP	54	192	5
TAP	55	0	1
TAP	55	96	0
TAP	55	192	0
TAP	55	192	1
TAP	55	288	0
TAP	55	288	1
TAP	56	0	1
TAP	56	96	0
TAP	56	192	2
TAP	56	192	7
HLD	57	0	1	192
TAP	57	96	0
TAP	57	192	0
HLD	58	0	6	192
TAP	58	96	7
TAP	58	192	7
TAP	59	0	1
TAP	59	96	0
TAP	59	192	6
TAP	59	288	7
TAP	60	0	0
TAP	60	0	7
TAP	60	96	0
TAP	60	96	7
TAP	60	192	1
TAP	60	192	6
HLD	61	0	2	192
TAP	61	96	3
TAP	61	192	3
HLD	62	0	5	192
TAP	62	96	4
TAP	62	192	4
TAP	63	0	2
TAP	63	96	3
TAP	63	192	5
TAP	63	288	4
STR	64	0	3
SI_	64	0	3	96	192	0
STR	64	0	4
SI_	64	0	4	96	192	7
TAP	65	0	1
TAP	65	96	0
TAP	65	192	6
TAP	65	288	7
TAP	66	0	0
TAP	66	0	7
TAP	66	96	0
TAP	66	96	7
HLD	66	192	0	96
HLD	66	192	7	96
TAP	67	0	6
TAP	67	96	7
TAP	67	192	1
TAP	67	288	0
TAP	68	0	0
TAP	68	0	7
TAP	68	96	0
TAP	68	96	7
TAP	68	192	1
TAP	68	192	6
TAP	69	0	2
TAP	69	96	3
TAP	69	192	5
TAP	69	288	4
TAP	70	0	3
TAP	70	0	4
TAP	70	96	3
TAP	70	96	4
HLD	70	192	3	96
HLD	70	192	4	96
TAP	71	0	5
TAP	71	96	4
TAP	71	192	2
TAP	71	288	3
TAP	72	0	3
TAP	72	0	4
TAP	72	96	3
TAP	72	96	4
TAP	72	192	2
TAP	72	192	5
TAP	73	0	1
TAP	73	96	0
TAP	73	192	7
TAP	73	288	6
TAP	74	0	6
TAP	74	0	7
TAP	74	96	6
TAP	74	96	7
TAP	74	192	0
TAP	74	192	5
TAP	75	0	6
TAP	75	96	7
TAP	75	192	0
TAP	75	288	1
TAP	76	0	0
TAP	76	0	1
TAP	76	96	0
TAP	76	96	1
TAP	76	192	2
TAP	76	192	7
TAP	77	0	6
TAP	77	0	7
TAP	77	192	0
TAP	77	192	1
TAP	78	0	0
TAP	78	0	7
TAP	78	96	0
TAP	78	96	7
BRK	78	192	1
BRK	78	192	6
TAP	79	0	0
TAP	79	96	1
TAP	79	192	2
TAP	79	288	3
TAP	80	0	4
TAP	80	96	5
TAP	80	192	6
BRK	80	288	7
TAP	81	0	7
TAP	81	96	6
TAP	81	192	5
TAP	81	288	4
TAP	82	0	3
TAP	82	96	2
TAP	82	192	1
BRK	82	288	0
TAP	83	0	1
TAP	83	96	2
TAP	83	192	3
TAP	83	288	3
TAP	83	288	4
TAP	84	0	5
TAP	84	96	6
TAP	84	192	7
TAP	84	288	0
TAP	84	288	7
HLD	85	0	0	192
HLD	85	0	1	192
HLD	86	0	6	192
HLD	86	0	7	192
TAP	87	0	4
TAP	87	96	5
TAP	87	192	6
TAP	87	288	7
TAP	88	0	0
TAP	88	96	1
TAP	88	192	2
BRK	88	288	3
TAP	89	0	3
TAP	89	96	2
TAP	89	192	1
TAP	89	288	0
TAP	90	0	7
TAP	90	96	6
TAP	90	192	5
BRK	90	288	4
TAP	91	0	2
TAP	91	0	3
TAP	91	96	2
TAP	91	96	3
TAP	91	192	4
TAP	91	192	5
TAP	91	288	4
TAP	91	288	5
TAP	92	0	3
TAP	92	0	4
TAP	92	96	3
TAP	92	96	4
TAP	92	192	2
TAP	92	192	5
TAP	93	0	2
TAP	93	96	2
TAP	93	192	3
TAP	94	0	5
TAP	94	96	5
TAP	94	192	4
TAP	95	0	2
TAP	95	96	2
TAP	95	192	3
TAP	96	0	5
TAP	96	96	5
TAP	96	192	4
TAP	97	0	6
TAP	97	96	6
TAP	97	192	7
TAP	98	0	1
TAP	98	96	1
TAP	98	192	0
TAP	99	0	6
TAP	99	96	7
TAP	99	192	0
TAP	99	288	1
TAP	100	0	0
TAP	100	0	7
TAP	100	96	0
TAP	100	96	7
BRK	100	192	1
BRK	100	192	6

T_REC_TAP	267
T_REC_BRK	8
T_REC_XTP	0
T_REC_HLD	30
T_REC_XHO	0
T_REC_STR	10
T_REC_BST	0
T_REC_XST	0
T_REC_TTP	0
T_REC_THO	0
T_REC_SLD	10
T_REC_ALL	325
T_NUM_TAP	277
T_NUM_BRK	8
T_NUM_HLD	30
T_NUM_SLD	10
T_NUM_ALL	325
T_JUDGE_TAP	285
T_JUDGE_HLD	164
T_JUDGE_SLD	10
T_JUDGE_ALL	459
TTM_EACHPAIRS	58
TTM_SCR_TAP	138500
TTM_SCR_BRK	20800
TTM_SCR_HLD	30000
TTM_SCR_SLD	15000
TTM_SCR_ALL	204300
TTM_SCR_S	197400
TTM_SCR_SS	203500
TTM_RAT_ACV	10039

