VERSION	0.00.00	1.03.00
FES_MODE	0
BPM_DEF	192.000	192.000	192.000	192.000
MET_DEF	4	4
RESOLUTION	384
CLK_DEF	384
COMPATIBLE_CODE	MA2

BPM	0	0	192.000

TAP	4	0	0
TAP	4	192	0
TAP	5	0	1
TAP	5	192	1
TAP	6	0	2
TAP	6	192	2
TAP	7	0	3
TAP	7	192	3
TAP	8	0	4
TAP	8	192	4
TAP	9	0	5
TAP	9	192	5
TAP	10	0	6
TAP	10	192	6
TAP	11	0	7
TAP	11	192	7
HLD	12	0	7	384
HLD	14	0	0	384
TAP	16	0	7
TAP	16	192	7
TAP	17	0	6
TAP	17	192	6
TAP	18	0	5
TAP	18	192	5
TAP	19	0	4
TAP	19	192	3
TAP	19	192	4
TAP	20	0	3
TAP	20	192	3
TAP	21	0	2
TAP	21	192	2
TAP	22	0	1
TAP	22	192	1
TAP	23	0	0
TAP	23	192	0
TAP	23	192	7
STR	24	0	7
SI_	24	0	7	96	288	4
STR	26	0	0
SI_	26	0	0	96	288	3
STR	28	0	6
SI_	28	0	6	96	288	3
STR	30	0	1
SI_	30	0	1	96	288	4
TAP	32	0	7
TAP	32	192	7
TAP	33	0	7
TAP	34	0	6
TAP	34	192	6
TAP	35	0	6
TAP	35	0	7
TAP	36	0	5
TAP	36	192	5
TAP	37	0	5
TAP	38	0	4
TAP	38	96	4
TAP	38	192	4
TAP	39	0	3
TAP	39	96	3
TAP	39	192	3
HLD	40	0	3	384
HLD	42	0	2	384
HLD	44	0	1	384
HLD	46	0	0	384
BRK	48	0	0
BRK	48	0	7
TAP	49	0	0
TAP	49	96	0
TAP	49	192	0
TAP	50	0	0
TAP	50	96	0
TAP	50	192	0
TAP	51	0	1
TAP	51	96	1
TAP	51	192	1
TAP	52	0	1
TAP	52	96	1
TAP	52	192	1
TAP	53	0	2
TAP	53	96	2
TAP	53	192	2
TAP	54	0	2
TAP	54	96	2
TAP	54	192	2
TAP	55	0	3
TAP	55	96	3
TAP	55	192	3
TAP	55	192	4
TAP	56	0	4
TAP	56	96	4
TAP	56	192	3
TAP	56	192	4
HLD	57	0	4	384
HLD	59	0	5	384
HLD	61	0	6	384
HLD	63	0	7	384
TAP	65	0	7
TAP	65	96	7
TAP	65	192	7
HLD	66	0	7	192
TAP	67	0	6
TAP	67	96	6
TAP	67	192	6
HLD	68	0	6	192
TAP	69	0	5
TAP	69	96	5
TAP	69	192	5
HLD	70	0	5	192
TAP	71	0	4
TAP	71	96	4
TAP	71	192	4
HLD	72	0	3	192
HLD	72	0	4	192
TAP	73	0	2
TAP	73	96	2
TAP	73	192	2
TAP	74	0	2
TAP	74	96	2
TAP	74	192	2
TAP	75	0	1
TAP	75	96	1
TAP	75	192	1
TAP	76	0	1
TAP	76	96	1
TAP	76	192	1
STR	77	0	0
SI_	77	0	0	96	288	4
TAP	79	0	5
TAP	79	192	5
TAP	80	0	4
TAP	80	192	4
TAP	81	0	3
TAP	81	192	3
TAP	82	0	2
TAP	82	192	2
TAP	83	0	3
TAP	83	0	4
TAP	83	192	3
TAP	83	192	4
TAP	84	0	4
TAP	84	0	5
TAP	84	192	4
TAP	84	192	5
TAP	85	0	3
TAP	85	0	4
TAP	85	192	3
TAP	85	192	4
TAP	86	0	2
TAP	86	0	3
TAP	86	192	2
TAP	86	192	3
TAP	87	0	1
TAP	87	192	1
TAP	88	0	0
TAP	88	192	0
TAP	89	0	7
TAP	89	192	7
TAP	90	0	6
TAP	90	192	6
TAP	91	0	6
TAP	91	0	7
TAP	91	192	6
TAP	91	192	7
TAP	92	0	0
TAP	92	0	1
TAP	92	192	0
TAP	92	192	1
STR	93	0	7
SI_	93	0	7	96	288	4
STR	95	0	0
SI_	95	0	0	96	288	3
STR	97	0	6
SI_	97	0	6	96	288	3
STR	99	0	1
SI_	99	0	1	96	288	4
HLD	101	0	7	192
TAP	102	0	7
TAP	102	192	7
HLD	103	0	0	192
TAP	104	0	0
TAP	104	192	0

T_REC_TAP	144
T_REC_BRK	2
T_REC_XTP	0
T_REC_HLD	17
T_REC_XHO	0
T_REC_STR	9
T_REC_BST	0
T_REC_XST	0
T_REC_TTP	0
T_REC_THO	0
T_REC_SLD	9
T_REC_ALL	181
T_NUM_TAP	153
T_NUM_BRK	2
T_NUM_HLD	17
T_NUM_SLD	9
T_NUM_ALL	181
T_JUDGE_TAP	155
T_JUDGE_HLD	108
T_JUDGE_SLD	9
T_JUDGE_ALL	272
TTM_EACHPAIRS	19
TTM_SCR_TAP	76500
TTM_SCR_BRK	5200
TTM_SCR_HLD	17000
TTM_SCR_SLD	13500
TTM_SCR_ALL	112200
TTM_SCR_S	108650
TTM_SCR_SS	112000
TTM_RAT_ACV	10017

