VERSION	0.00.00	1.03.00
FES_MODE	0
BPM_DEF	115.000	115.000	115.000	115.000
MET_DEF	4	4
RESOLUTION	384
CLK_DEF	384
COMPATIBLE_CODE	MA2

BPM	0	0	115.000

BST	4	64	4
SI_	4	64	4	96	416	7
BST	4	64	7
SSR	4	64	7	96	416	3
BST	6	0	7
SI_	6	0	7	96	48	4
STR	6	96	0
SI_	6	96	0	96	48	3
STR	6	192	7
SI_	6	192	7	96	48	4
STR	6	288	0
SI_	6	288	0	96	48	3
STR	7	0	7
SI_	7	0	7	96	48	4
STR	7	96	0
SI_	7	96	0	96	48	3
STR	7	192	7
SI_	7	192	7	96	48	3
STR	7	288	0
SCL	7	288	0	96	48	5
SCR	7	288	0	96	48	3
STR	8	96	7
SI_	8	96	7	96	48	4
STR	8	192	0
SI_	8	192	0	96	48	3
STR	8	288	7
SI_	8	288	7	96	48	4
STR	9	0	0
SI_	9	0	0	96	48	3
STR	9	96	7
SI_	9	96	7	96	48	3
STR	9	192	1
SCL	9	192	1	96	48	6
BST	10	0	7
SI_	10	0	7	96	48	4
STR	10	96	0
SI_	10	96	0	96	48	3
STR	10	192	7
SI_	10	192	7	96	48	4
STR	10	288	0
SI_	10	288	0	96	48	3
STR	11	0	7
SI_	11	0	7	96	48	4
STR	11	96	0
SI_	11	96	0	96	48	3
STR	11	192	7
SI_	11	192	7	96	48	4
STR	11	288	1
SI_	11	288	1	96	48	6
STR	12	0	5
SI_	12	0	5	96	48	2
STR	12	96	1
SI_	12	96	1	96	48	6
STR	12	192	5
SI_	12	192	5	96	48	2
STR	12	288	1
SI_	12	288	1	96	48	6
STR	13	0	5
SI_	13	0	5	96	48	2
STR	13	96	1
SCL	13	96	1	96	48	6
BST	13	288	1
SCL	13	288	1	96	48	6
BST	13	288	6
SI_	13	288	6	96	48	4
STR	14	96	1
SI_	14	96	1	96	48	3
STR	14	96	6
SCR	14	96	6	96	48	1
STR	14	288	1
SCL	14	288	1	96	48	6
STR	14	288	6
SI_	14	288	6	96	48	4
STR	15	96	1
SI_	15	96	1	96	48	3
STR	15	96	6
SCR	15	96	6	96	48	1
STR	15	288	1
SCL	15	288	1	96	48	6
STR	15	288	6
SI_	15	288	6	96	48	4
STR	16	96	1
SI_	16	96	1	96	48	3
STR	16	96	6
SCR	16	96	6	96	48	1
STR	16	288	5
SI_	16	288	5	96	48	1
STR	17	0	2
SI_	17	0	2	96	48	6
STR	17	96	4
SI_	17	96	4	96	48	7
STR	17	192	3
SI_	17	192	3	96	48	0
STR	18	0	6
SI_	18	0	6	96	24	0
STR	18	48	6
SI_	18	48	6	96	24	4
STR	18	192	1
SI_	18	192	1	96	24	7
STR	18	240	1
SI_	18	240	1	96	24	3
STR	19	0	6
SI_	19	0	6	96	24	0
STR	19	48	6
SI_	19	48	6	96	24	4
STR	19	192	3
SF_	19	192	3	96	48	7
STR	20	0	1
SI_	20	0	1	96	24	7
STR	20	48	1
SI_	20	48	1	96	24	3
STR	20	192	6
SI_	20	192	6	96	24	0
STR	20	240	6
SI_	20	240	6	96	24	4
STR	21	0	2
SI_	21	0	2	96	24	5
STR	21	96	6
SI_	21	96	6	96	24	0
STR	21	144	6
SI_	21	144	6	96	24	4
STR	21	192	6
SCR	21	192	6	96	48	2
STR	22	0	1
SCL	22	0	1	96	24	7
STR	22	48	1
SCR	22	48	1	96	24	3
STR	22	192	6
SCR	22	192	6	96	24	0
STR	22	240	6
SCL	22	240	6	96	24	4
STR	23	0	1
SCL	23	0	1	96	24	7
STR	23	48	1
SCR	23	48	1	96	24	3
STR	23	192	4
SF_	23	192	4	96	48	0
STR	24	0	6
SCR	24	0	6	96	24	0
STR	24	48	6
SCL	24	48	6	96	24	4
STR	24	192	1
SCL	24	192	1	96	24	7
STR	24	240	1
SCR	24	240	1	96	24	3
STR	25	0	6
SCR	25	0	6	96	24	0
STR	25	48	6
SCL	25	48	6	96	24	4
STR	25	96	6
SI_	25	96	6	96	48	2
BST	25	288	1
SI_	25	288	1	96	48	5
BST	25	288	6
SCL	25	288	6	96	48	4
STR	26	0	1
SCR	26	0	1	96	48	3
STR	26	0	6
SCR	26	0	6	96	48	0
STR	26	96	6
SUL	26	96	6	96	48	2
STR	26	288	1
SCR	26	288	1	96	48	3
STR	26	288	6
SI_	26	288	6	96	48	2
STR	27	0	1
SCL	27	0	1	96	48	7
STR	27	0	6
SCL	27	0	6	96	48	4
STR	27	96	1
SUR	27	96	1	96	48	5
STR	27	288	1
SI_	27	288	1	96	48	5
STR	27	288	6
SCL	27	288	6	96	48	4
STR	28	0	1
SCR	28	0	1	96	48	3
STR	28	0	6
SCR	28	0	6	96	48	0
STR	28	96	6
SUL	28	96	6	96	48	2
STR	28	288	1
SCR	28	288	1	96	48	3
STR	28	288	6
SI_	28	288	6	96	48	2
STR	29	0	1
SCL	29	0	1	96	48	7
STR	29	0	6
SCL	29	0	6	96	48	4
STR	29	96	1
SUR	29	96	1	96	48	5
BST	29	288	1
SI_	29	288	1	96	48	5
BST	29	288	6
SCL	29	288	6	96	48	4
STR	30	0	1
SCR	30	0	1	96	48	3
STR	30	0	6
SCR	30	0	6	96	48	0
STR	30	96	6
SUL	30	96	6	96	48	2
STR	30	288	1
SCR	30	288	1	96	48	3
STR	30	288	6
SI_	30	288	6	96	48	2
STR	31	0	1
SCL	31	0	1	96	48	7
STR	31	0	6
SCL	31	0	6	96	48	4
STR	31	96	1
SUR	31	96	1	96	48	5
STR	31	288	1
SI_	31	288	1	96	48	5
STR	31	288	6
SCL	31	288	6	96	48	4
STR	32	0	1
SCR	32	0	1	96	48	3
STR	32	0	6
SCR	32	0	6	96	48	0
STR	32	96	6
SUL	32	96	6	96	48	2
STR	32	288	1
SCR	32	288	1	96	48	3
STR	32	288	6
SI_	32	288	6	96	48	2
STR	33	0	1
SCL	33	0	1	96	48	7
STR	33	0	6
SCL	33	0	6	96	48	4
STR	33	96	1
SUR	33	96	1	96	48	5
BST	33	288	3
SCL	33	288	3	96	192	4
STR	34	288	4
SCR	34	288	4	96	192	3
STR	35	288	3
SCL	35	288	3	96	192	3
SCR	35	288	3	96	192	3
STR	36	288	4
SCR	36	288	4	96	48	7
STR	37	0	4
SCL	37	0	4	96	48	1
STR	37	96	4
SF_	37	96	4	96	96	0
STR	38	0	7
SV_	38	0	7	96	96	5
STR	38	192	0
SV_	38	192	0	96	96	2
STR	39	0	6
SV_	39	0	6	96	96	4
STR	39	192	1
SV_	39	192	1	96	96	3
STR	40	0	7
SI_	40	0	7	96	24	5
STR	40	96	0
SI_	40	96	0	96	24	2
STR	40	192	6
SI_	40	192	6	96	24	4
STR	40	288	1
SI_	40	288	1	96	24	3
STR	41	0	7
SI_	41	0	7	96	24	3
STR	41	48	7
SCR	41	48	7	96	24	2
STR	41	96	7
SCL	41	96	7	96	24	4
BST	41	288	2
SCR	41	288	2	96	48	5
BST	41	288	5
SCR	41	288	5	96	48	0
STR	42	0	2
SLL	42	0	2	96	48	3
STR	42	96	2
SCL	42	96	2	96	48	7
STR	42	96	5
SCL	42	96	5	96	48	2
STR	42	192	5
SLR	42	192	5	96	48	4
STR	42	288	2
SCR	42	288	2	96	48	5
STR	42	288	5
SCR	42	288	5	96	48	0
STR	43	0	2
SLL	43	0	2	96	48	3
STR	43	96	2
SCL	43	96	2	96	48	7
STR	43	96	5
SCL	43	96	5	96	48	2
STR	43	288	2
SCR	43	288	2	96	48	5
STR	43	288	5
SCR	43	288	5	96	48	0
STR	44	0	2
SLL	44	0	2	96	48	4
STR	44	96	2
SCL	44	96	2	96	48	7
STR	44	96	5
SCL	44	96	5	96	48	2
STR	44	192	5
SLR	44	192	5	96	48	3
STR	44	288	2
SCR	44	288	2	96	48	5
STR	44	288	5
SCR	44	288	5	96	48	0
STR	45	0	2
SLL	45	0	2	96	48	4
STR	45	96	2
SCL	45	96	2	96	48	7
STR	45	96	5
SCL	45	96	5	96	48	2
BST	45	288	1
SCL	45	288	1	96	48	6
BST	45	288	6
SCL	45	288	6	96	48	3
STR	46	0	1
SLR	46	0	1	96	48	7
STR	46	96	1
SCR	46	96	1	96	48	4
STR	46	96	6
SCR	46	96	6	96	48	1
STR	46	192	6
SLL	46	192	6	96	48	0
STR	46	288	1
SCL	46	288	1	96	48	6
STR	46	288	6
SCL	46	288	6	96	48	3
STR	47	0	1
SLR	47	0	1	96	48	7
STR	47	96	1
SCR	47	96	1	96	48	4
STR	47	96	6
SCR	47	96	6	96	48	1
STR	47	288	2
SCL	47	288	2	96	48	0
STR	47	288	5
SV_	47	288	5	96	48	0
STR	48	0	2
SV_	48	0	2	96	48	7
STR	48	0	5
SCR	48	0	5	96	48	7
STR	48	96	2
SCL	48	96	2	96	48	0
STR	48	96	5
SV_	48	96	5	96	48	0
STR	48	192	2
SV_	48	192	2	96	48	7
STR	48	192	5
SCR	48	192	5	96	48	7
STR	48	288	2
SCL	48	288	2	96	48	0
STR	48	288	5
SV_	48	288	5	96	48	0
STR	49	0	2
SV_	49	0	2	96	48	7
STR	49	0	5
SCR	49	0	5	96	48	7
STR	49	96	2
SCL	49	96	2	96	48	0
STR	49	96	5
SV_	49	96	5	96	48	0
STR	49	192	5
SI_	49	192	5	96	48	3
BST	49	288	2
SXR	49	288	2	96	144	7
STR	50	96	4
SI_	50	96	4	96	48	6
STR	50	144	4
SI_	50	144	4	96	48	2
STR	50	288	5
SXL	50	288	5	96	144	0
STR	51	96	3
SI_	51	96	3	96	48	1
STR	51	144	3
SI_	51	144	3	96	48	5
STR	51	288	2
SXR	51	288	2	96	144	7
STR	52	96	4
SI_	52	96	4	96	48	6
STR	52	144	4
SI_	52	144	4	96	48	2
STR	52	288	5
SXL	52	288	5	96	144	0
STR	53	96	1
SCR	53	96	1	96	48	4
STR	53	288	5
SXL	53	288	5	96	144	0
STR	54	96	3
SI_	54	96	3	96	48	1
STR	54	144	3
SI_	54	144	3	96	48	5
STR	54	288	2
SXR	54	288	2	96	144	7
STR	55	96	4
SI_	55	96	4	96	48	6
STR	55	144	4
SI_	55	144	4	96	48	2
STR	55	288	5
SXL	55	288	5	96	144	0
STR	56	96	1
SXL	56	96	1	96	144	4
STR	56	288	5
SXL	56	288	5	96	144	0
STR	57	96	3
SI_	57	96	3	96	48	7
STR	57	288	2
SCL	57	288	2	96	48	0
STR	57	288	6
SCL	57	288	6	96	48	4
STR	58	0	2
SI_	58	0	2	96	48	6
STR	58	0	6
SI_	58	0	6	96	48	2
STR	58	96	2
SCL	58	96	2	96	48	0
STR	58	96	6
SCL	58	96	6	96	48	4
STR	58	192	2
SI_	58	192	2	96	48	6
STR	58	192	6
SI_	58	192	6	96	48	2
STR	59	0	1
SI_	59	0	1	96	24	5
STR	59	48	1
SI_	59	48	1	96	24	3
STR	59	192	6
SI_	59	192	6	96	24	4
STR	59	240	6
SF_	59	240	6	96	48	2

T_REC_TAP	0
T_REC_BRK	0
T_REC_XTP	0
T_REC_HLD	0
T_REC_XHO	0
T_REC_STR	197
T_REC_BST	16
T_REC_XST	0
T_REC_TTP	0
T_REC_THO	0
T_REC_SLD	215
T_REC_ALL	428
T_NUM_TAP	197
T_NUM_BRK	16
T_NUM_HLD	0
T_NUM_SLD	215
T_NUM_ALL	428
T_JUDGE_TAP	213
T_JUDGE_HLD	0
T_JUDGE_SLD	215
T_JUDGE_ALL	428
TTM_EACHPAIRS	46
TTM_SCR_TAP	98500
TTM_SCR_BRK	41600
TTM_SCR_HLD	0
TTM_SCR_SLD	322500
TTM_SCR_ALL	462600
TTM_SCR_S	447200
TTM_SCR_SS	461000
TTM_RAT_ACV	10034

