VERSION	0.00.00	1.03.00
FES_MODE	0
BPM_DEF	115.000	115.000	115.000	115.000
MET_DEF	4	4
RESOLUTION	384
CLK_DEF	384
COMPATIBLE_CODE	MA2

BPM	0	0	115.000

BST	4	72	3
SSR	4	72	3	96	408	7
BST	4	72	7
SI_	4	72	7	96	408	4
HLD	6	0	2	384
TAP	6	0	4
TAP	6	96	3
TAP	6	192	3
TAP	6	240	3
TAP	6	288	3
HLD	7	0	5	384
TAP	7	96	4
TAP	7	192	4
TAP	7	240	4
TAP	7	288	4
HLD	8	0	2	384
TAP	8	96	3
TAP	8	192	1
TAP	8	240	1
TAP	8	288	1
HLD	9	0	5	288
TAP	9	96	4
TAP	9	192	6
TAP	9	240	6
TAP	9	288	6
TAP	10	0	1
HLD	10	0	3	96
HLD	10	96	4	192
TAP	10	192	5
TAP	10	240	6
TAP	10	288	5
HLD	11	0	4	96
TAP	11	0	6
HLD	11	96	3	192
TAP	11	192	2
TAP	11	240	1
TAP	11	288	2
TAP	12	0	5
HLD	12	0	7	96
HLD	12	96	0	192
TAP	12	192	1
TAP	12	240	2
TAP	12	288	1
HLD	13	0	0	96
TAP	13	0	2
HLD	13	96	7	192
TAP	13	192	6
TAP	13	240	5
TAP	13	288	6
BST	14	0	4
SI_	14	0	4	96	48	0
BST	14	0	5
SI_	14	0	5	96	48	7
BST	14	192	4
SI_	14	192	4	96	48	1
BST	14	192	5
SI_	14	192	5	96	48	0
BST	15	0	2
SI_	15	0	2	96	48	0
BST	15	0	3
SI_	15	0	3	96	48	7
BST	15	192	2
SI_	15	192	2	96	48	7
BST	15	192	3
SI_	15	192	3	96	48	6
BST	16	0	4
SI_	16	0	4	96	48	1
BST	16	0	5
SI_	16	0	5	96	48	0
BST	16	192	4
SI_	16	192	4	96	48	0
BST	16	192	5
SI_	16	192	5	96	48	7
STR	17	0	4
SCL	17	0	4	96	96	6
TAP	17	0	5
BRK	17	288	1
BRK	17	288	5
TAP	18	0	2
TAP	18	0	3
TAP	18	48	1
TAP	18	96	2
TAP	18	96	3
TAP	18	192	2
TAP	18	192	3
TAP	18	240	4
TAP	18	288	2
TAP	18	288	3
TAP	19	0	2
TAP	19	0	3
TAP	19	48	0
TAP	19	96	2
TAP	19	96	3
TAP	19	192	4
TAP	19	192	5
TAP	19	240	6
TAP	19	288	1
TAP	19	288	7
TAP	20	0	4
TAP	20	0	5
TAP	20	48	6
TAP	20	96	4
TAP	20	96	5
TAP	20	192	4
TAP	20	192	5
TAP	20	240	3
TAP	20	288	4
TAP	20	288	5
TAP	21	0	4
TAP	21	0	5
TAP	21	48	7
TAP	21	96	4
TAP	21	96	5
TAP	21	192	2
TAP	21	192	3
TAP	21	240	1
BRK	21	288	0
BRK	21	288	6
TAP	22	0	6
TAP	22	0	7
TAP	22	48	5
TAP	22	96	6
TAP	22	96	7
TAP	22	192	6
TAP	22	192	7
TAP	22	240	0
TAP	22	288	6
TAP	22	288	7
TAP	23	0	6
TAP	23	0	7
TAP	23	48	4
TAP	23	96	6
TAP	23	96	7
TAP	23	192	0
TAP	23	192	1
TAP	23	240	2
TAP	23	288	3
TAP	23	288	5
TAP	24	0	1
TAP	24	0	3
TAP	24	48	0
TAP	24	96	1
TAP	24	96	3
TAP	24	192	4
TAP	24	192	6
TAP	24	240	7
TAP	24	288	4
TAP	24	288	6
TAP	25	0	2
TAP	25	0	4
TAP	25	48	0
TAP	25	96	2
TAP	25	96	4
TAP	25	192	3
TAP	25	192	5
TAP	25	240	7
BRK	25	288	1
BRK	25	288	6
TAP	26	0	2
TAP	26	0	3
TAP	26	48	1
TAP	26	96	2
TAP	26	96	3
TAP	26	144	0
TAP	26	192	7
TAP	26	240	6
TAP	26	288	0
TAP	26	288	5
TAP	27	0	1
TAP	27	0	3
TAP	27	48	2
TAP	27	96	4
TAP	27	96	6
TAP	27	144	5
BST	27	192	2
SI_	27	192	2	96	48	0
BST	27	192	3
SI_	27	192	3	96	48	7
TAP	28	0	4
TAP	28	0	5
TAP	28	48	6
TAP	28	96	4
TAP	28	96	5
TAP	28	144	7
TAP	28	192	0
TAP	28	240	1
TAP	28	288	2
TAP	28	288	7
TAP	29	0	4
TAP	29	0	6
TAP	29	48	5
TAP	29	96	1
TAP	29	96	3
TAP	29	144	2
BST	29	192	4
SI_	29	192	4	96	48	0
BST	29	192	5
SI_	29	192	5	96	48	7
TAP	30	0	2
TAP	30	0	3
TAP	30	48	0
TAP	30	96	1
TAP	30	96	3
TAP	30	144	0
TAP	30	192	7
TAP	30	240	6
TAP	30	288	0
TAP	30	288	5
TAP	31	0	2
TAP	31	0	7
TAP	31	48	6
TAP	31	96	0
TAP	31	96	5
TAP	31	144	1
BST	31	192	2
SI_	31	192	2	96	48	7
BST	31	192	3
SI_	31	192	3	96	48	6
TAP	32	0	4
TAP	32	0	5
TAP	32	48	7
TAP	32	96	4
TAP	32	96	6
TAP	32	144	7
TAP	32	192	0
TAP	32	240	1
TAP	32	288	2
TAP	32	288	7
TAP	33	0	0
TAP	33	0	5
TAP	33	48	6
TAP	33	96	2
TAP	33	96	7
TAP	33	144	1
HLD	33	192	0	96
BRK	33	288	7
HLD	34	0	1	72
HLD	34	72	2	72
TAP	34	144	3
TAP	34	240	4
TAP	34	240	5
TAP	34	288	4
TAP	34	288	5
HLD	35	0	6	72
HLD	35	72	5	72
TAP	35	144	4
TAP	35	240	1
TAP	35	240	3
TAP	35	288	1
TAP	35	288	3
HLD	36	0	2	72
HLD	36	72	1	72
TAP	36	144	0
TAP	36	240	4
TAP	36	240	7
TAP	36	288	4
TAP	36	288	7
STR	37	0	6
SI_	37	0	6	96	48	3
STR	37	96	2
SCL	37	96	2	96	96	5
BRK	37	192	4
HLD	38	0	2	48
BRK	38	0	3
HLD	38	96	1	48
HLD	38	96	3	48
BRK	38	192	4
HLD	38	192	5	48
HLD	38	288	4	48
HLD	38	288	6	48
BRK	39	0	0
HLD	39	0	1	48
HLD	39	96	0	48
HLD	39	96	2	48
HLD	39	192	6	48
BRK	39	192	7
HLD	39	288	5	48
HLD	39	288	7	48
TAP	40	0	0
TAP	40	0	1
TAP	40	48	0
TAP	40	48	1
TAP	40	96	0
TAP	40	96	7
TAP	40	144	0
TAP	40	144	7
TAP	40	192	6
TAP	40	192	7
TAP	40	240	6
TAP	40	240	7
TAP	40	288	0
TAP	40	288	7
TAP	40	336	0
TAP	40	336	7
TAP	41	0	0
TAP	41	24	7
TAP	41	48	0
TAP	41	72	7
TAP	41	96	0
TAP	41	120	7
TAP	41	144	0
TAP	41	168	7
TAP	41	192	0
TAP	41	216	7
TAP	41	240	0
BRK	41	288	1
BRK	41	288	6
TAP	42	0	2
HLD	42	0	4	96
TAP	42	48	3
HLD	42	96	2	96
TAP	42	144	3
HLD	42	192	6	96
TAP	42	240	5
HLD	42	288	3	96
TAP	42	336	4
HLD	43	0	6	96
TAP	43	48	7
HLD	43	96	1	96
TAP	43	144	0
TAP	43	192	7
TAP	43	240	6
TAP	43	288	0
TAP	43	288	5
TAP	44	0	1
HLD	44	0	7	96
TAP	44	48	0
HLD	44	96	1	96
TAP	44	144	0
HLD	44	192	5	96
TAP	44	240	6
HLD	44	288	0	96
TAP	44	336	7
HLD	45	0	5	96
TAP	45	48	4
HLD	45	96	2	96
TAP	45	144	3
TAP	45	192	4
TAP	45	240	5
BRK	45	288	0
BRK	45	288	6
HLD	46	0	1	96
TAP	46	0	4
TAP	46	48	2
HLD	46	96	3	96
TAP	46	144	2
HLD	46	192	0	96
TAP	46	240	7
HLD	46	288	6	96
TAP	46	336	7
HLD	47	0	2	96
TAP	47	48	3
HLD	47	96	5	96
TAP	47	144	4
HLD	47	192	1	96
TAP	47	240	2
TAP	47	288	4
TAP	47	336	5
HLD	48	0	4	48
HLD	48	0	6	48
HLD	48	96	1	48
HLD	48	96	3	48
HLD	48	192	6	48
HLD	48	192	7	48
HLD	48	288	0	48
HLD	48	288	1	48
TAP	49	0	2
TAP	49	48	1
TAP	49	48	3
TAP	49	96	0
TAP	49	96	4
TAP	49	144	5
TAP	49	144	7
TAP	49	192	6
TAP	49	240	0
BRK	49	288	1
BRK	49	288	7
STR	50	0	1
SI_	50	0	1	96	48	4
STR	50	96	0
SI_	50	96	0	96	48	5
TAP	50	192	2
TAP	50	240	2
TAP	50	288	1
TAP	50	288	3
STR	51	0	6
SI_	51	0	6	96	48	3
STR	51	96	7
SI_	51	96	7	96	48	2
TAP	51	192	5
TAP	51	240	5
TAP	51	288	4
TAP	51	288	6
STR	52	0	1
SCR	52	0	1	96	48	4
STR	52	96	0
SCL	52	96	0	96	48	5
TAP	52	192	2
TAP	52	240	2
STR	52	288	1
SUR	52	288	1	96	48	5
TAP	52	288	3
STR	53	0	7
SUL	53	0	7	96	48	3
STR	53	96	0
SUR	53	96	0	96	48	4
TAP	53	192	6
BRK	53	288	1
BRK	53	288	5
STR	54	0	5
SI_	54	0	5	96	48	0
STR	54	96	4
SI_	54	96	4	96	48	1
TAP	54	192	5
TAP	54	240	6
TAP	54	288	2
TAP	54	288	7
STR	55	0	2
SI_	55	0	2	96	48	7
STR	55	96	3
SI_	55	96	3	96	48	6
TAP	55	192	2
TAP	55	240	1
TAP	55	288	0
TAP	55	288	5
STR	56	0	1
SUR	56	0	1	96	48	5
STR	56	96	7
SUL	56	96	7	96	48	3
STR	56	192	0
SUR	56	192	0	96	48	4
STR	56	288	6
SUL	56	288	6	96	48	2
STR	57	0	0
SCR	57	0	0	96	48	3
STR	57	96	7
SCL	57	96	7	96	48	4
TAP	57	192	1
BRK	57	288	2
BRK	57	288	7
TAP	58	0	3
TAP	58	0	4
TAP	58	96	5
TAP	58	96	6
TAP	58	192	0
TAP	58	192	7
TAP	58	288	1
TAP	58	288	2
TAP	59	0	4
HLD	59	32	4	48
TAP	59	80	3
TAP	59	128	2
TAP	59	128	3
TAP	59	176	3
TAP	59	176	4
TAP	59	224	4
TAP	59	224	5
TAP	59	272	3
TAP	59	288	4
BRK	59	336	1
BRK	59	336	5

T_REC_TAP	294
T_REC_BRK	24
T_REC_XTP	0
T_REC_HLD	59
T_REC_XHO	0
T_REC_STR	22
T_REC_BST	20
T_REC_XST	0
T_REC_TTP	0
T_REC_THO	0
T_REC_SLD	42
T_REC_ALL	461
T_NUM_TAP	316
T_NUM_BRK	44
T_NUM_HLD	59
T_NUM_SLD	42
T_NUM_ALL	461
T_JUDGE_TAP	360
T_JUDGE_HLD	248
T_JUDGE_SLD	42
T_JUDGE_ALL	650
TTM_EACHPAIRS	120
TTM_SCR_TAP	158000
TTM_SCR_BRK	114400
TTM_SCR_HLD	59000
TTM_SCR_SLD	63000
TTM_SCR_ALL	394400
TTM_SCR_S	378300
TTM_SCR_SS	390000
TTM_RAT_ACV	10112

