VERSION	0.00.00	1.03.00
FES_MODE	0
BPM_DEF	115.000	115.000	115.000	115.000
MET_DEF	4	4
RESOLUTION	384
CLK_DEF	384
COMPATIBLE_CODE	MA2

BPM	0	0	115.000

TAP	6	0	2
TAP	6	96	3
TAP	6	192	5
TAP	6	288	4
TAP	7	0	2
TAP	7	96	3
TAP	7	192	3
TAP	7	192	4
TAP	8	0	1
TAP	8	96	0
TAP	8	192	6
TAP	8	288	7
TAP	9	0	1
TAP	9	96	0
TAP	9	192	0
TAP	9	192	7
TAP	10	0	2
TAP	10	96	2
TAP	10	96	3
TAP	10	192	5
TAP	10	288	4
TAP	10	288	5
TAP	11	0	2
TAP	11	96	2
TAP	11	96	3
TAP	11	192	3
TAP	11	192	4
TAP	12	0	1
TAP	12	96	0
TAP	12	96	1
TAP	12	192	6
TAP	12	288	6
TAP	12	288	7
TAP	13	0	1
TAP	13	96	0
TAP	13	96	1
TAP	13	192	0
TAP	13	192	7
STR	14	0	3
SI_	14	0	3	96	96	0
STR	14	192	7
SI_	14	192	7	96	96	4
STR	15	0	2
SI_	15	0	2	96	96	5
STR	15	192	6
SI_	15	192	6	96	96	1
STR	16	0	2
SI_	16	0	2	96	96	7
STR	16	192	5
SI_	16	192	5	96	96	0
STR	17	0	1
SUR	17	0	1	96	192	4
TAP	18	0	3
TAP	18	96	3
TAP	18	192	2
TAP	18	288	2
TAP	19	0	1
TAP	19	96	1
TAP	19	192	0
HLD	19	288	0	96
TAP	20	0	7
TAP	20	96	7
TAP	20	192	6
TAP	20	288	6
TAP	21	0	5
TAP	21	96	5
TAP	21	192	4
TAP	21	240	4
HLD	21	288	4	96
TAP	22	0	3
TAP	22	96	2
TAP	22	96	4
TAP	22	192	4
TAP	22	288	3
TAP	22	288	5
TAP	23	0	3
TAP	23	96	2
TAP	23	96	4
STR	23	192	4
SI_	23	192	4	96	96	7
TAP	24	0	0
TAP	24	96	1
TAP	24	96	7
TAP	24	192	7
TAP	24	288	0
TAP	24	288	6
TAP	25	0	0
TAP	25	96	1
TAP	25	96	7
STR	25	192	7
SI_	25	192	7	96	96	4
TAP	26	0	2
TAP	26	48	2
TAP	26	96	2
TAP	26	192	5
TAP	26	240	5
TAP	26	288	5
TAP	27	0	1
TAP	27	48	1
TAP	27	96	1
TAP	27	192	6
BRK	27	288	0
BRK	27	288	7
TAP	28	0	1
TAP	28	48	1
TAP	28	96	1
TAP	28	192	6
TAP	28	240	6
TAP	28	288	6
TAP	29	0	2
TAP	29	48	2
TAP	29	96	2
TAP	29	192	5
TAP	29	240	5
BRK	29	288	3
BRK	29	288	4
TAP	30	0	2
TAP	30	48	2
TAP	30	96	2
TAP	30	96	3
TAP	30	192	5
TAP	30	240	5
TAP	30	288	4
TAP	30	288	5
TAP	31	0	1
TAP	31	48	1
TAP	31	96	0
TAP	31	96	1
TAP	31	192	6
TAP	31	240	6
BRK	31	288	6
BRK	31	288	7
TAP	32	0	5
TAP	32	48	5
TAP	32	96	4
TAP	32	96	6
TAP	32	192	2
TAP	32	240	2
TAP	32	288	1
TAP	32	288	3
TAP	33	0	6
TAP	33	48	6
TAP	33	96	5
TAP	33	96	7
TAP	33	192	1
TAP	33	240	0
TAP	33	240	2
BRK	33	288	0
BRK	33	288	2
STR	34	0	1
SXL	34	0	1	96	240	6
STR	35	0	5
SXL	35	0	5	96	240	2
STR	36	0	0
SSL	36	0	0	96	192	4
STR	37	0	4
SUL	37	0	4	96	192	3
TAP	38	0	0
TAP	38	48	0
TAP	38	96	7
TAP	38	192	6
TAP	38	240	6
TAP	38	288	5
TAP	39	0	4
TAP	39	48	4
TAP	39	96	3
TAP	39	192	2
TAP	39	240	2
TAP	39	288	1
TAP	40	0	0
TAP	40	48	0
TAP	40	96	1
TAP	40	96	7
TAP	40	192	2
TAP	40	192	6
TAP	40	240	2
TAP	40	240	6
TAP	40	288	3
TAP	40	288	5
TAP	41	0	4
TAP	41	48	4
TAP	41	96	4
BRK	41	192	3
BRK	41	192	4
BRK	41	240	3
BRK	41	240	4
BRK	41	288	3
BRK	41	288	4
TAP	42	0	0
TAP	42	0	1
TAP	42	96	2
TAP	42	96	7
TAP	42	192	6
TAP	42	192	7
TAP	42	288	0
TAP	42	288	5
TAP	43	0	0
TAP	43	0	1
TAP	43	96	2
TAP	43	96	7
TAP	43	192	0
TAP	43	192	7
BRK	43	288	1
BRK	43	288	6
TAP	44	0	4
TAP	44	0	5
TAP	44	96	3
TAP	44	96	6
TAP	44	192	2
TAP	44	192	3
TAP	44	288	1
TAP	44	288	4
TAP	45	0	4
TAP	45	0	5
TAP	45	96	3
TAP	45	96	6
TAP	45	192	3
TAP	45	192	4
TAP	45	240	3
TAP	45	240	4
BRK	45	288	2
BRK	45	288	5
TAP	46	0	0
TAP	46	0	1
TAP	46	96	2
TAP	46	96	7
TAP	46	192	6
TAP	46	192	7
TAP	46	288	0
TAP	46	288	5
TAP	47	0	0
TAP	47	0	1
TAP	47	96	2
TAP	47	96	7
TAP	47	192	6
TAP	47	192	7
TAP	47	288	0
TAP	47	288	5
TAP	48	0	0
TAP	48	0	7
TAP	48	48	0
TAP	48	48	7
TAP	48	96	1
TAP	48	96	6
TAP	48	192	2
TAP	48	192	5
TAP	48	240	2
TAP	48	240	5
TAP	48	288	3
TAP	48	288	4
TAP	49	0	2
TAP	49	0	3
TAP	49	48	2
TAP	49	48	3
TAP	49	96	1
TAP	49	96	4
TAP	49	192	0
TAP	49	192	5
TAP	49	240	0
TAP	49	240	5
BRK	49	288	6
BRK	49	288	7
HLD	50	0	6	192
TAP	50	192	7
TAP	50	288	0
TAP	50	288	7
HLD	51	0	1	192
TAP	51	192	0
TAP	51	288	0
TAP	51	288	7
HLD	52	0	2	192
TAP	52	192	3
TAP	52	288	3
TAP	52	288	4
HLD	53	0	5	192
TAP	53	192	4
TAP	53	288	3
TAP	53	288	4
HLD	54	0	2	192
HLD	54	0	3	192
TAP	54	288	1
TAP	54	288	4
HLD	55	0	4	192
HLD	55	0	5	192
TAP	55	288	3
TAP	55	288	6
HLD	56	0	3	96
HLD	56	0	4	96
HLD	56	192	2	96
HLD	56	192	5	96
TAP	57	0	1
TAP	57	0	6
TAP	57	96	1
TAP	57	96	6
TAP	57	192	0
TAP	57	192	7
TAP	57	288	0
TAP	57	288	7
HLD	58	0	6	96
HLD	58	0	7	96
HLD	58	192	0	96
HLD	58	192	1	96
STR	59	0	0
SXL	59	0	0	96	288	3
STR	59	0	7
SXR	59	0	7	96	288	4

T_REC_TAP	238
T_REC_BRK	20
T_REC_XTP	0
T_REC_HLD	18
T_REC_XHO	0
T_REC_STR	15
T_REC_BST	0
T_REC_XST	0
T_REC_TTP	0
T_REC_THO	0
T_REC_SLD	15
T_REC_ALL	306
T_NUM_TAP	253
T_NUM_BRK	20
T_NUM_HLD	18
T_NUM_SLD	15
T_NUM_ALL	306
T_JUDGE_TAP	273
T_JUDGE_HLD	104
T_JUDGE_SLD	15
T_JUDGE_ALL	392
TTM_EACHPAIRS	88
TTM_SCR_TAP	126500
TTM_SCR_BRK	52000
TTM_SCR_HLD	18000
TTM_SCR_SLD	22500
TTM_SCR_ALL	219000
TTM_SCR_S	210500
TTM_SCR_SS	217000
TTM_RAT_ACV	10092

