VERSION	0.00.00	1.03.00
FES_MODE	0
BPM_DEF	115.000	115.000	115.000	115.000
MET_DEF	4	4
RESOLUTION	384
CLK_DEF	384
COMPATIBLE_CODE	MA2

BPM	0	0	115.000

TAP	6	0	0
TAP	6	192	0
TAP	7	0	1
TAP	7	192	1
TAP	8	0	2
TAP	8	192	2
TAP	9	0	3
TAP	9	192	3
TAP	9	192	4
TAP	10	0	4
TAP	10	192	4
TAP	11	0	5
TAP	11	192	5
TAP	12	0	6
TAP	12	192	6
TAP	13	0	7
TAP	13	192	0
TAP	13	192	7
TAP	14	0	6
TAP	14	192	6
TAP	14	192	7
TAP	15	0	6
TAP	15	192	6
TAP	15	192	7
TAP	16	0	1
TAP	16	192	0
TAP	16	192	1
TAP	17	0	1
TAP	17	192	0
TAP	17	192	1
TAP	18	0	7
TAP	18	192	7
TAP	19	0	6
TAP	19	96	6
TAP	19	192	6
TAP	20	0	5
TAP	20	192	5
TAP	21	0	4
TAP	21	96	3
TAP	21	192	4
TAP	22	0	3
TAP	22	192	3
TAP	23	0	2
TAP	23	96	2
TAP	23	192	2
TAP	24	0	1
TAP	24	192	1
TAP	25	0	0
TAP	25	96	7
TAP	25	192	0
HLD	26	0	1	192
TAP	27	0	2
TAP	27	96	2
TAP	27	192	2
HLD	28	0	3	192
TAP	29	0	4
TAP	29	96	3
TAP	29	192	3
TAP	29	192	4
HLD	30	0	4	192
TAP	31	0	5
TAP	31	96	5
TAP	31	192	5
HLD	32	0	6	192
TAP	33	0	7
TAP	33	96	0
BRK	33	192	0
BRK	33	192	7
STR	34	0	0
SI_	34	0	0	96	288	3
STR	36	0	7
SI_	36	0	7	96	288	4
STR	38	0	0
SI_	38	0	0	96	288	5
STR	40	0	7
SI_	40	0	7	96	288	2
TAP	42	0	0
TAP	42	96	0
TAP	42	192	0
TAP	43	0	1
TAP	43	96	1
TAP	43	192	1
TAP	44	0	2
TAP	44	96	2
TAP	44	192	2
TAP	45	0	3
TAP	45	0	4
TAP	45	96	3
TAP	45	96	4
TAP	45	192	3
TAP	45	192	4
TAP	46	0	4
TAP	46	96	4
TAP	46	192	4
TAP	47	0	5
TAP	47	96	5
TAP	47	192	5
TAP	48	0	6
TAP	48	96	6
TAP	48	192	6
TAP	49	0	0
TAP	49	0	7
TAP	49	96	0
TAP	49	96	7
BRK	49	192	0
BRK	49	192	7
HLD	50	0	6	192
HLD	51	0	6	192
HLD	51	0	7	192
HLD	52	0	5	192
HLD	53	0	4	192
HLD	53	0	5	192
HLD	54	0	2	192
HLD	55	0	2	192
HLD	55	0	3	192
HLD	56	0	1	192
HLD	57	0	0	192
HLD	57	0	1	192
TAP	58	0	7
TAP	58	96	7
TAP	58	192	7
STR	59	0	0
SI_	59	0	0	96	288	3

T_REC_TAP	93
T_REC_BRK	4
T_REC_XTP	0
T_REC_HLD	16
T_REC_XHO	0
T_REC_STR	5
T_REC_BST	0
T_REC_XST	0
T_REC_TTP	0
T_REC_THO	0
T_REC_SLD	5
T_REC_ALL	123
T_NUM_TAP	98
T_NUM_BRK	4
T_NUM_HLD	16
T_NUM_SLD	5
T_NUM_ALL	123
T_JUDGE_TAP	102
T_JUDGE_HLD	128
T_JUDGE_SLD	5
T_JUDGE_ALL	235
TTM_EACHPAIRS	18
TTM_SCR_TAP	49000
TTM_SCR_BRK	10400
TTM_SCR_HLD	16000
TTM_SCR_SLD	7500
TTM_SCR_ALL	82900
TTM_SCR_S	80050
TTM_SCR_SS	82500
TTM_RAT_ACV	10048

