VERSION	0.00.00	1.03.00
FES_MODE	0
BPM_DEF	135.000	135.000	135.000	135.000
MET_DEF	4	4
RESOLUTION	384
CLK_DEF	384
COMPATIBLE_CODE	MA2

BPM	0	0	135.000
MET	0	0	4	4

STR	3	0	4
SXL	3	0	4	96	288	4
SXR	3	0	4	96	288	4
TAP	4	192	3
STR	5	0	2
SXR	5	0	2	96	288	3
STR	5	0	4
SXL	5	0	4	96	288	3
TAP	6	192	3
TAP	6	192	4
STR	7	0	2
SXR	7	0	2	96	192	4
STR	7	0	5
SXL	7	0	5	96	192	3
TAP	8	0	2
TAP	8	48	3
TAP	8	96	2
TAP	8	144	1
TAP	8	144	4
TAP	8	240	0
TAP	8	288	7
HLD	8	336	0	144
TAP	9	48	7
TAP	9	96	7
TAP	9	192	4
TAP	9	192	6
TAP	9	288	1
TAP	9	288	3
TAP	10	0	3
HLD	10	0	4	72
HLD	10	72	5	72
TAP	10	144	6
HLD	10	192	6	96
STR	10	288	1
SCR	10	288	1	96	96	6
HLD	11	0	7	144
TAP	11	144	0
TAP	11	168	7
TAP	11	192	0
TAP	11	288	1
TAP	11	288	6
TAP	12	0	5
TAP	12	48	4
TAP	12	96	5
TAP	12	144	3
STR	12	144	6
SCR	12	144	6	96	48	1
TAP	12	240	2
TAP	12	288	2
STR	12	336	2
SCR	12	336	2	96	48	5
TAP	13	48	6
TAP	13	96	6
STR	13	144	6
SUL	13	144	6	96	48	1
TAP	14	0	0
TAP	14	0	2
TAP	14	96	3
TAP	14	96	7
HLD	14	192	4	96
HLD	14	192	6	96
TAP	14	336	5
TAP	14	360	4
HLD	15	0	5	72
HLD	15	72	6	72
HLD	15	144	7	144
TAP	15	288	0
TAP	15	336	1
STR	16	0	1
SCR	16	0	1	96	48	4
TAP	16	96	7
TAP	16	144	7
STR	16	192	6
SCL	16	192	6	96	48	3
TAP	16	240	6
TAP	16	288	0
TAP	16	336	0
STR	17	0	0
SXR	17	0	0	96	192	5
STR	17	0	1
SXL	17	0	1	96	192	4
TAP	17	48	0
TAP	17	48	1
TAP	17	72	0
TAP	17	72	1
TAP	18	0	3
TAP	18	0	6
TAP	18	48	5
TAP	18	96	5
TAP	18	120	4
HLD	18	168	4	72
TAP	18	240	3
STR	18	288	3
SF_	18	288	3	96	288	7
TAP	18	312	2
TAP	18	360	2
TAP	19	0	3
TAP	20	0	1
TAP	20	0	4
TAP	20	48	2
TAP	20	96	2
TAP	20	120	3
HLD	20	168	3	72
TAP	20	240	4
STR	20	288	4
SF_	20	288	4	96	288	0
TAP	20	312	5
TAP	20	360	5
TAP	21	0	4
TAP	22	0	0
TAP	22	48	0
TAP	22	96	1
TAP	22	120	1
TAP	22	168	7
TAP	22	216	6
TAP	22	240	6
TAP	22	288	5
TAP	22	336	4
STR	23	0	2
SUR	23	0	2	96	48	7
STR	23	0	3
SCR	23	0	3	96	48	6
STR	23	192	4
SCL	23	192	4	96	48	1
STR	23	192	5
SUL	23	192	5	96	48	0
STR	24	0	2
SXR	24	0	2	96	192	7
STR	24	0	3
SXL	24	0	3	96	192	6
HLD	25	0	0	96
TAP	25	96	7
TAP	25	144	0
TAP	25	144	1
TAP	25	240	2
TAP	25	240	3
STR	25	336	3
SUR	25	336	3	96	96	0
STR	25	336	4
SCR	25	336	4	96	96	7
TAP	26	240	3
TAP	26	288	2
TAP	26	336	0
STR	26	336	1
SI_	26	336	1	96	48	5
TAP	27	96	7
TAP	27	144	7
TAP	27	240	2
TAP	27	288	3
STR	27	336	4
SI_	27	336	4	96	48	0
TAP	27	336	5
TAP	28	96	7
TAP	28	144	7
TAP	28	240	5
HLD	28	288	5	96
HLD	29	0	3	96
TAP	29	96	2
TAP	29	144	2
TAP	29	240	0
HLD	29	288	0	96
HLD	30	0	7	96
TAP	30	96	1
HLD	30	144	2	96
TAP	30	240	5
TAP	30	288	4
HLD	30	336	3	96
TAP	31	48	2
STR	31	96	2
SSL	31	96	2	96	72	6
TAP	31	336	0
TAP	31	360	7
TAP	32	0	0
TAP	32	48	6
TAP	32	96	5
STR	32	144	4
SCL	32	144	4	96	48	1
BRK	32	288	7
HLD	33	0	7	96
TAP	33	96	0
TAP	33	144	6
TAP	33	144	7
TAP	33	240	4
TAP	33	240	5
STR	33	336	3
SUR	33	336	3	96	96	0
STR	33	336	4
SUL	33	336	4	96	96	7
TAP	34	240	4
TAP	34	288	5
STR	34	336	6
SI_	34	336	6	96	48	2
TAP	34	336	7
TAP	35	96	0
TAP	35	144	0
TAP	35	240	5
TAP	35	288	4
STR	35	336	3
SI_	35	336	3	96	48	7
TAP	36	0	2
TAP	36	96	0
TAP	36	144	0
TAP	36	240	2
HLD	36	288	2	96
HLD	37	0	4	96
TAP	37	96	5
TAP	37	144	5
TAP	37	240	7
HLD	37	288	7	96
HLD	38	0	0	96
TAP	38	96	6
HLD	38	144	5	96
TAP	38	240	2
TAP	38	288	3
HLD	38	336	4	96
TAP	39	48	5
STR	39	96	5
SUL	39	96	5	96	96	2
TAP	39	336	7
TAP	40	0	0
TAP	40	0	6
TAP	40	48	1
TAP	40	48	5
TAP	40	96	2
TAP	40	96	4
STR	40	144	3
SI_	40	144	3	96	48	7
BRK	40	288	0
STR	41	0	5
SUL	41	0	5	96	96	3
TAP	41	144	0
STR	41	192	0
SI_	41	192	0	96	48	4
BRK	41	288	0
STR	42	0	5
SUL	42	0	5	96	96	3
TAP	42	144	0
STR	42	192	0
SI_	42	192	0	96	48	4
BRK	42	288	0
STR	43	0	2
SUR	43	0	2	96	96	4
TAP	43	144	7
STR	43	192	7
SI_	43	192	7	96	48	3
BRK	43	288	7
STR	44	0	2
SUR	44	0	2	96	96	4
TAP	44	144	7
STR	44	192	7
SI_	44	192	7	96	48	3
BRK	44	288	7
HLD	44	336	0	96
TAP	45	48	7
STR	45	96	0
SI_	45	96	0	96	48	4
TAP	45	144	0
STR	45	192	7
SI_	45	192	7	96	48	3
TAP	45	240	7
STR	45	288	1
SI_	45	288	1	96	48	5
TAP	45	336	1
TAP	46	96	4
TAP	46	96	6
TAP	46	144	5
TAP	46	192	1
TAP	46	192	3
TAP	46	240	2
TAP	46	288	4
TAP	46	288	6
HLD	46	336	5	96
TAP	47	48	1
STR	47	96	1
SCR	47	96	1	96	72	4
STR	47	96	5
SCR	47	96	5	96	72	0
STR	47	336	2
SI_	47	336	2	96	48	7
STR	47	336	6
SI_	47	336	6	96	48	3
BRK	48	192	1
BRK	48	192	5
BRK	48	240	3
BRK	48	240	7
TAP	49	0	1
TAP	49	48	0
TAP	49	96	1
STR	49	144	7
SCL	49	144	7	96	48	4
TAP	49	240	0
TAP	49	288	0
STR	49	336	1
SCR	49	336	1	96	48	4
TAP	50	48	0
TAP	50	96	7
TAP	50	144	6
HLD	50	192	5	96
TAP	50	288	6
HLD	51	0	4	72
HLD	51	72	3	72
TAP	51	144	2
HLD	51	192	1	96
TAP	51	288	0
STR	52	0	7
SCL	52	0	7	96	72	1
TAP	52	144	0
STR	52	192	0
SI_	52	192	0	96	48	4
BRK	52	288	7
TAP	53	0	6
TAP	53	48	7
TAP	53	96	6
STR	53	144	0
SCR	53	144	0	96	48	3
TAP	53	240	7
TAP	53	288	7
STR	53	336	6
SCL	53	336	6	96	48	3
TAP	54	48	7
TAP	54	96	0
TAP	54	144	1
STR	54	192	2
SI_	54	192	2	96	48	5
SCR	54	192	2	96	48	5
TAP	55	0	0
TAP	55	0	7
TAP	55	96	1
TAP	55	96	6
TAP	55	192	2
TAP	55	192	5
TAP	55	288	3
TAP	55	288	4
STR	56	0	2
SXR	56	0	2	96	96	4
STR	56	0	5
SXL	56	0	5	96	96	3
BRK	56	288	1
BRK	56	288	6
TAP	57	0	0
TAP	57	0	1
TAP	57	48	2
TAP	57	48	7
TAP	57	96	3
TAP	57	96	6
TAP	57	144	4
STR	57	144	5
SCR	57	144	5	96	48	0
TAP	57	240	3
TAP	57	288	2
STR	57	336	1
SCR	57	336	1	96	48	4
TAP	58	48	7
STR	58	96	7
SCL	58	96	7	96	48	4
BST	58	192	2
SI_	58	192	2	96	48	6
BRK	58	288	3
STR	59	0	5
SCR	59	0	5	96	48	0
TAP	59	72	4
TAP	59	144	3
STR	59	192	2
SCR	59	192	2	96	48	5
STR	59	288	6
SUL	59	288	6	96	48	1
HLD	60	0	0	144
TAP	60	144	7
TAP	60	168	0
STR	60	192	7
SI_	60	192	7	96	48	3
BRK	60	288	0
TAP	61	0	6
TAP	61	0	7
TAP	61	48	0
TAP	61	48	5
TAP	61	96	1
TAP	61	96	4
STR	61	144	2
SCL	61	144	2	96	48	7
TAP	61	144	3
TAP	61	240	6
TAP	61	288	5
HLD	61	336	4	96
STR	62	48	3
SXL	62	48	3	96	144	3
SXR	62	48	3	96	144	3
TAP	62	96	3
TAP	62	144	3
HLD	63	0	1	96
HLD	63	96	3	96
STR	63	192	4
SI_	63	192	4	96	48	0
TAP	63	288	6
TAP	63	336	6
TAP	63	360	7
HLD	64	0	6	72
HLD	64	72	4	72
STR	64	144	3
SI_	64	144	3	96	48	7
TAP	64	288	1
TAP	64	336	0
STR	65	0	0
SCR	65	0	0	96	48	4
TAP	65	96	5
TAP	65	144	6
STR	65	192	7
SCL	65	192	7	96	48	3
TAP	65	240	7
TAP	65	288	1
TAP	65	336	0
STR	66	0	6
SXR	66	0	6	96	192	3
STR	66	0	7
SXL	66	0	7	96	192	2
TAP	66	48	6
TAP	66	48	7
TAP	66	72	6
TAP	66	72	7
HLD	67	0	1	48
TAP	67	48	0
TAP	67	96	1
TAP	67	120	1
TAP	67	168	0
TAP	67	192	0
TAP	67	264	1
TAP	67	264	7
TAP	67	336	2
TAP	67	336	6
STR	68	0	3
SXR	68	0	3	96	192	4
STR	68	0	5
SXL	68	0	5	96	192	4
TAP	69	0	3
TAP	69	0	6
TAP	69	48	5
TAP	69	96	5
TAP	69	120	4
HLD	69	168	4	72
TAP	69	240	3
STR	69	288	3
SF_	69	288	3	96	288	7
TAP	69	312	2
TAP	69	360	2
TAP	70	0	3
HLD	71	0	0	96
TAP	71	96	7
TAP	71	144	0
TAP	71	192	7
TAP	71	288	1
TAP	71	288	6
STR	72	0	2
SXR	72	0	2	96	96	4
STR	72	192	5
SXL	72	192	5	96	96	3
STR	73	0	0
SXL	73	0	0	96	192	4
SXR	73	0	0	96	192	4
TAP	73	336	7
STR	74	0	7
SUL	74	0	7	96	48	3
TAP	74	96	2
TAP	74	144	1
STR	74	192	0
SUR	74	192	0	96	48	4
TAP	74	240	0
TAP	74	288	7
TAP	74	336	6
STR	75	0	2
SXR	75	0	2	96	672	4
STR	75	0	5
SXL	75	0	5	96	672	3
TAP	75	48	2
TAP	75	48	5
TAP	75	72	2
TAP	75	72	5

T_REC_TAP	250
T_REC_BRK	15
T_REC_XTP	0
T_REC_HLD	41
T_REC_XHO	0
T_REC_STR	82
T_REC_BST	1
T_REC_XST	0
T_REC_TTP	0
T_REC_THO	0
T_REC_SLD	87
T_REC_ALL	476
T_NUM_TAP	332
T_NUM_BRK	16
T_NUM_HLD	41
T_NUM_SLD	87
T_NUM_ALL	476
T_JUDGE_TAP	348
T_JUDGE_HLD	85
T_JUDGE_SLD	87
T_JUDGE_ALL	520
TTM_EACHPAIRS	64
TTM_SCR_TAP	166000
TTM_SCR_BRK	41600
TTM_SCR_HLD	41000
TTM_SCR_SLD	130500
TTM_SCR_ALL	379100
TTM_SCR_S	366200
TTM_SCR_SS	377500
TTM_RAT_ACV	10042

