VERSION	0.00.00	1.03.00
FES_MODE	0
BPM_DEF	135.000	135.000	135.000	135.000
MET_DEF	4	4
RESOLUTION	384
CLK_DEF	384
COMPATIBLE_CODE	MA2

BPM	0	0	135.000
MET	0	0	4	4

HLD	3	0	3	384
HLD	4	0	4	384
HLD	5	0	5	384
HLD	6	0	6	384
STR	7	0	7
SF_	7	0	7	96	192	3
TAP	8	0	2
TAP	8	48	2
TAP	8	96	1
TAP	8	96	3
TAP	8	192	5
TAP	8	240	5
TAP	8	288	4
TAP	8	288	6
TAP	9	0	2
TAP	9	48	2
HLD	9	96	1	192
TAP	9	96	3
TAP	9	192	0
TAP	9	288	0
HLD	10	0	2	72
HLD	10	72	3	72
TAP	10	144	4
HLD	10	192	5	96
TAP	10	288	4
STR	11	0	4
SCL	11	0	4	96	96	1
STR	11	0	5
SUL	11	0	5	96	96	0
TAP	11	288	2
TAP	11	288	7
TAP	12	0	5
TAP	12	48	4
TAP	12	96	3
TAP	12	96	6
TAP	12	192	2
TAP	12	240	3
TAP	12	288	1
TAP	12	288	4
STR	13	0	5
SUL	13	0	5	96	192	2
TAP	14	0	0
TAP	14	0	1
TAP	14	96	2
TAP	14	96	7
HLD	14	192	3	96
HLD	14	192	6	96
HLD	15	0	5	72
HLD	15	72	4	72
HLD	15	144	3	144
TAP	15	288	2
TAP	16	0	0
STR	16	0	1
SI_	16	0	1	96	48	4
STR	16	192	6
SI_	16	192	6	96	48	3
TAP	16	192	7
BST	17	0	0
SF_	17	0	0	96	192	4
TAP	18	0	3
TAP	18	96	2
TAP	18	96	4
TAP	18	192	4
TAP	18	288	3
TAP	18	288	5
TAP	19	0	3
TAP	19	96	1
TAP	19	96	4
TAP	19	192	4
TAP	19	288	3
TAP	19	288	6
TAP	20	0	2
TAP	20	96	1
TAP	20	96	4
TAP	20	192	5
TAP	20	288	3
TAP	20	288	6
TAP	21	0	2
TAP	21	0	3
TAP	21	96	1
TAP	21	96	4
TAP	21	192	4
TAP	21	192	5
TAP	21	288	3
TAP	21	288	6
TAP	22	0	2
TAP	22	0	3
TAP	22	96	1
TAP	22	96	7
TAP	22	192	4
TAP	22	192	5
TAP	22	288	0
TAP	22	288	6
HLD	23	0	2	96
TAP	23	0	3
TAP	23	96	0
TAP	23	192	4
HLD	23	192	5	96
TAP	23	288	7
STR	24	0	6
SXR	24	0	6	96	192	3
STR	24	0	7
SXL	24	0	7	96	192	2
HLD	25	0	2	96
TAP	25	96	3
TAP	25	144	3
TAP	25	240	4
TAP	25	288	3
TAP	25	288	5
HLD	26	0	5	96
TAP	26	96	4
TAP	26	144	4
TAP	26	240	3
TAP	26	288	2
TAP	26	288	4
HLD	27	0	1	96
TAP	27	96	3
TAP	27	144	3
TAP	27	240	4
TAP	27	288	3
TAP	27	288	5
HLD	28	0	6	96
TAP	28	96	4
TAP	28	144	4
TAP	28	240	3
TAP	28	288	2
TAP	28	288	4
TAP	29	0	2
TAP	29	0	3
TAP	29	96	1
TAP	29	96	4
TAP	29	192	4
TAP	29	192	5
TAP	29	288	3
TAP	29	288	6
TAP	30	0	0
TAP	30	0	1
TAP	30	96	2
TAP	30	96	7
TAP	30	192	3
TAP	30	192	6
TAP	30	288	4
TAP	30	288	5
STR	31	0	5
SUL	31	0	5	96	192	2
TAP	32	0	0
TAP	32	48	7
TAP	32	96	1
HLD	32	144	6	144
BRK	32	288	0
TAP	33	0	4
TAP	33	48	4
TAP	33	96	3
TAP	33	96	5
TAP	33	192	3
TAP	33	240	3
TAP	33	288	2
TAP	33	288	4
TAP	34	0	7
TAP	34	48	7
TAP	34	96	0
TAP	34	96	6
TAP	34	192	0
TAP	34	240	0
TAP	34	288	1
TAP	34	288	7
TAP	35	0	5
TAP	35	48	4
TAP	35	96	3
TAP	35	96	5
TAP	35	192	2
TAP	35	240	3
TAP	35	288	2
TAP	35	288	4
TAP	36	0	6
TAP	36	48	7
TAP	36	96	0
TAP	36	96	6
TAP	36	192	1
TAP	36	240	0
TAP	36	288	1
TAP	36	288	7
TAP	37	0	5
TAP	37	48	4
TAP	37	96	3
TAP	37	96	6
TAP	37	192	2
TAP	37	240	3
TAP	37	288	1
TAP	37	288	4
TAP	38	0	6
TAP	38	0	7
TAP	38	96	0
TAP	38	96	5
TAP	38	192	1
TAP	38	192	4
TAP	38	288	2
TAP	38	288	3
STR	39	0	2
SUR	39	0	2	96	192	5
TAP	40	0	7
TAP	40	48	0
TAP	40	96	6
HLD	40	144	1	144
BRK	40	288	7
STR	41	0	2
SUR	41	0	2	96	144	4
BRK	41	288	7
STR	42	0	5
SUL	42	0	5	96	144	3
BRK	42	288	0
STR	43	0	1
SXR	43	0	1	96	144	4
BRK	43	288	7
STR	44	0	6
SXL	44	0	6	96	144	3
BRK	44	288	0
TAP	45	0	0
TAP	45	48	0
TAP	45	96	6
TAP	45	144	6
TAP	45	192	2
TAP	45	240	2
TAP	45	288	4
TAP	45	336	4
HLD	46	0	3	96
TAP	46	96	5
TAP	46	144	5
TAP	46	192	1
TAP	46	240	1
TAP	46	288	7
TAP	46	336	7
TAP	47	0	0
TAP	47	0	1
TAP	47	96	1
TAP	47	96	2
TAP	47	192	2
TAP	47	192	3
TAP	47	288	3
TAP	47	288	4
TAP	48	0	4
TAP	48	0	5
TAP	48	96	5
TAP	48	96	6
BRK	48	192	6
BRK	48	192	7
TAP	49	0	1
TAP	49	48	1
TAP	49	96	0
TAP	49	96	1
TAP	49	192	6
TAP	49	240	6
TAP	49	288	6
TAP	49	288	7
TAP	50	0	0
TAP	50	48	0
TAP	50	96	7
TAP	50	144	7
HLD	50	192	1	96
TAP	50	288	0
HLD	51	0	2	72
HLD	51	72	3	72
TAP	51	144	4
HLD	51	192	5	96
TAP	51	288	4
STR	52	0	5
SCL	52	0	5	96	48	2
TAP	52	192	0
TAP	52	288	1
TAP	52	288	7
TAP	53	0	6
TAP	53	48	6
TAP	53	96	6
TAP	53	96	7
TAP	53	192	1
TAP	53	240	1
TAP	53	288	0
TAP	53	288	1
TAP	54	0	7
TAP	54	48	7
TAP	54	96	0
TAP	54	144	0
HLD	54	192	6	96
TAP	54	288	7
TAP	55	0	4
TAP	55	0	5
TAP	55	96	3
TAP	55	96	6
TAP	55	192	2
TAP	55	192	7
TAP	55	288	0
TAP	55	288	1
STR	56	0	0
SCL	56	0	0	96	96	5
STR	56	0	1
SCR	56	0	1	96	96	4
BRK	56	288	2
BRK	56	288	7
TAP	57	0	1
TAP	57	48	1
TAP	57	96	0
TAP	57	96	2
TAP	57	192	6
TAP	57	240	6
TAP	57	288	5
TAP	57	288	7
TAP	58	0	1
TAP	58	48	1
TAP	58	96	0
TAP	58	96	2
TAP	58	192	2
TAP	58	192	3
TAP	58	288	0
TAP	58	288	5
HLD	59	0	5	72
HLD	59	72	4	72
TAP	59	144	3
HLD	59	192	2	96
TAP	59	288	3
STR	60	0	2
SCR	60	0	2	96	48	5
TAP	60	192	7
TAP	60	288	0
TAP	60	288	7
TAP	61	0	6
TAP	61	48	6
TAP	61	96	5
TAP	61	96	7
TAP	61	192	1
TAP	61	240	1
TAP	61	288	0
TAP	61	288	2
TAP	62	0	7
TAP	62	48	0
TAP	62	96	6
HLD	62	144	1	144
TAP	62	288	0
TAP	63	0	0
TAP	63	0	1
TAP	63	96	2
TAP	63	96	7
HLD	63	192	3	96
HLD	63	192	6	96
HLD	64	0	5	72
HLD	64	72	4	72
HLD	64	144	3	144
TAP	64	288	2
STR	65	0	0
SI_	65	0	0	96	48	5
STR	65	0	1
SI_	65	0	1	96	48	4
STR	65	192	6
SI_	65	192	6	96	48	3
STR	65	192	7
SI_	65	192	7	96	48	2
BST	66	0	0
SF_	66	0	0	96	192	4
TAP	67	0	6
TAP	67	96	4
TAP	67	96	5
TAP	67	192	1
TAP	67	288	2
TAP	67	288	3
TAP	68	0	7
TAP	68	96	4
TAP	68	96	5
TAP	68	192	0
TAP	68	288	2
TAP	68	288	3
HLD	69	0	2	96
TAP	69	0	7
TAP	69	96	3
TAP	69	192	0
HLD	69	192	5	96
TAP	69	288	4
TAP	70	0	5
TAP	70	48	4
TAP	70	96	6
TAP	70	192	2
TAP	70	240	3
TAP	70	288	1
TAP	71	0	5
TAP	71	48	5
TAP	71	96	4
TAP	71	144	4
TAP	71	192	3
TAP	71	288	2
TAP	71	288	4
STR	72	0	2
SI_	72	0	2	96	48	7
STR	72	192	5
SI_	72	192	5	96	48	0
STR	73	0	3
SF_	73	0	3	96	96	7
STR	74	0	1
SI_	74	0	1	96	48	4
STR	74	0	7
SI_	74	0	7	96	48	4
STR	74	192	0
SI_	74	192	0	96	48	3
STR	74	192	6
SI_	74	192	6	96	48	3
BST	75	0	0
SXR	75	0	0	96	672	5
BST	75	0	1
SXL	75	0	1	96	672	4

T_REC_TAP	292
T_REC_BRK	10
T_REC_XTP	0
T_REC_HLD	38
T_REC_XHO	0
T_REC_STR	29
T_REC_BST	4
T_REC_XST	0
T_REC_TTP	0
T_REC_THO	0
T_REC_SLD	33
T_REC_ALL	406
T_NUM_TAP	321
T_NUM_BRK	14
T_NUM_HLD	38
T_NUM_SLD	33
T_NUM_ALL	406
T_JUDGE_TAP	335
T_JUDGE_HLD	107
T_JUDGE_SLD	33
T_JUDGE_ALL	475
TTM_EACHPAIRS	96
TTM_SCR_TAP	160500
TTM_SCR_BRK	36400
TTM_SCR_HLD	38000
TTM_SCR_SLD	49500
TTM_SCR_ALL	284400
TTM_SCR_S	274550
TTM_SCR_SS	283000
TTM_RAT_ACV	10049

