VERSION	0.00.00	1.03.00
FES_MODE	0
BPM_DEF	135.000	135.000	135.000	135.000
MET_DEF	4	4
RESOLUTION	384
CLK_DEF	384
COMPATIBLE_CODE	MA2

BPM	0	0	135.000
MET	0	0	4	4

HLD	3	0	2	384
HLD	4	0	3	384
HLD	5	0	4	384
STR	6	0	5
SCL	6	0	5	96	480	7
TAP	8	0	0
TAP	8	96	0
TAP	8	192	1
TAP	8	288	1
TAP	9	0	2
TAP	9	96	2
TAP	9	192	1
TAP	9	192	4
TAP	10	0	5
TAP	10	96	4
TAP	10	96	5
TAP	10	192	2
TAP	10	288	2
TAP	10	288	3
TAP	11	0	3
TAP	11	0	4
TAP	11	96	2
TAP	11	96	5
TAP	11	192	1
TAP	11	192	6
TAP	12	0	7
TAP	12	96	7
TAP	12	192	6
TAP	12	288	6
TAP	13	0	5
TAP	13	96	5
TAP	13	192	3
TAP	13	192	6
TAP	14	0	2
TAP	14	96	2
TAP	14	192	2
TAP	14	192	3
TAP	15	0	5
TAP	15	96	5
TAP	15	192	4
TAP	15	192	5
TAP	16	0	3
TAP	16	0	4
TAP	16	96	2
TAP	16	96	5
TAP	16	192	1
TAP	16	192	6
TAP	16	288	0
TAP	16	288	7
STR	17	0	0
SCR	17	0	0	96	192	3
STR	17	0	7
SCL	17	0	7	96	192	4
TAP	18	0	4
TAP	18	96	5
TAP	18	192	4
TAP	18	192	5
TAP	19	0	3
TAP	19	96	2
TAP	19	192	2
TAP	19	192	3
TAP	20	0	4
TAP	20	96	5
TAP	20	192	4
TAP	20	192	5
TAP	21	0	7
TAP	21	96	6
TAP	21	192	6
TAP	21	192	7
TAP	22	0	0
TAP	22	96	1
TAP	22	192	0
TAP	22	192	1
TAP	23	0	0
TAP	23	96	7
TAP	23	192	6
TAP	23	288	5
TAP	24	0	4
TAP	24	96	3
TAP	24	192	2
TAP	24	192	5
HLD	25	0	5	192
TAP	25	192	4
HLD	26	0	2	192
TAP	26	192	3
HLD	27	0	5	192
TAP	27	192	4
HLD	28	0	6	192
TAP	28	192	7
HLD	29	0	1	192
TAP	29	192	0
HLD	30	0	6	192
TAP	30	192	7
TAP	31	0	5
TAP	31	96	5
TAP	31	192	4
TAP	31	192	5
TAP	31	288	4
TAP	31	288	5
TAP	32	0	2
TAP	32	96	2
TAP	32	192	1
TAP	32	192	3
TAP	33	0	7
TAP	33	96	6
TAP	33	192	5
TAP	33	288	4
TAP	34	0	4
TAP	34	96	5
TAP	34	192	6
TAP	34	288	7
TAP	35	0	0
TAP	35	96	1
TAP	35	192	2
TAP	35	288	3
TAP	36	0	3
TAP	36	96	2
TAP	36	192	1
TAP	36	288	0
TAP	37	0	0
TAP	37	0	7
TAP	37	96	0
TAP	37	96	7
TAP	37	192	1
TAP	37	192	6
HLD	38	0	5	192
TAP	38	192	4
HLD	39	0	2	192
TAP	39	192	3
TAP	40	0	3
TAP	40	0	4
TAP	40	96	2
TAP	40	96	5
TAP	40	192	1
TAP	40	192	6
STR	41	0	0
SCR	41	0	0	96	192	3
STR	42	0	4
SCR	42	0	4	96	192	7
STR	43	0	7
SCL	43	0	7	96	192	4
STR	44	0	3
SCL	44	0	3	96	192	0
TAP	45	0	0
TAP	45	96	1
TAP	45	192	2
TAP	45	288	3
TAP	46	0	4
TAP	46	96	5
TAP	46	192	6
TAP	46	288	7
TAP	47	0	0
TAP	47	96	0
TAP	47	192	7
STR	47	288	0
SCR	47	288	0	96	192	3
STR	47	288	7
SCL	47	288	7	96	192	4
TAP	49	0	1
TAP	49	96	0
TAP	49	96	1
TAP	49	192	6
TAP	49	288	6
TAP	49	288	7
TAP	50	0	4
TAP	50	0	5
TAP	50	96	4
TAP	50	96	5
TAP	50	192	3
TAP	50	192	6
TAP	51	0	2
TAP	51	96	3
TAP	51	192	4
TAP	51	288	5
TAP	52	0	3
TAP	52	0	4
TAP	52	96	2
TAP	52	96	5
TAP	52	192	1
TAP	52	192	6
TAP	53	0	6
TAP	53	96	6
TAP	53	96	7
TAP	53	192	1
TAP	53	288	0
TAP	53	288	1
TAP	54	0	2
TAP	54	0	3
TAP	54	96	2
TAP	54	96	3
TAP	54	192	1
TAP	54	192	4
TAP	55	0	4
TAP	55	96	3
TAP	55	192	2
TAP	55	288	1
TAP	56	0	0
TAP	56	0	7
TAP	56	96	0
TAP	56	96	7
TAP	56	192	1
TAP	56	192	6
TAP	57	0	6
TAP	57	96	6
TAP	57	96	7
TAP	57	192	1
TAP	57	288	0
TAP	57	288	1
TAP	58	0	6
TAP	58	0	7
TAP	58	96	6
TAP	58	96	7
TAP	58	192	0
TAP	58	192	5
TAP	59	0	5
TAP	59	96	4
TAP	59	96	5
TAP	59	192	2
TAP	59	288	2
TAP	59	288	3
TAP	60	0	3
TAP	60	0	4
TAP	60	96	2
TAP	60	96	5
TAP	60	192	1
TAP	60	192	6
TAP	61	0	1
TAP	61	96	0
TAP	61	96	1
TAP	61	192	6
TAP	61	288	6
TAP	61	288	7
TAP	62	0	0
TAP	62	0	1
TAP	62	96	0
TAP	62	96	1
TAP	62	192	2
TAP	62	192	7
TAP	63	0	2
TAP	63	0	3
TAP	63	96	2
TAP	63	96	3
TAP	63	192	1
TAP	63	192	4
TAP	64	0	4
TAP	64	0	5
TAP	64	96	4
TAP	64	96	5
TAP	64	192	3
TAP	64	192	6
TAP	65	0	3
TAP	65	0	4
TAP	65	96	2
TAP	65	96	5
TAP	65	192	1
TAP	65	192	6
TAP	65	288	0
TAP	65	288	7
BRK	66	0	1
BRK	66	0	6
TAP	67	0	3
TAP	67	96	2
TAP	67	192	1
TAP	67	192	4
TAP	68	0	5
TAP	68	96	4
TAP	68	192	3
TAP	68	288	2
TAP	69	0	4
TAP	69	96	5
TAP	69	192	3
TAP	69	192	6
TAP	70	0	6
TAP	70	96	7
TAP	70	192	0
TAP	70	288	1
TAP	71	0	7
TAP	71	96	6
TAP	71	192	1
TAP	71	192	6
TAP	72	0	1
TAP	72	96	0
TAP	72	192	6
TAP	72	288	7
TAP	73	0	0
TAP	73	96	1
BRK	73	192	1
BRK	73	192	6
HLD	74	0	5	192
HLD	74	192	4	192
STR	75	0	3
SCL	75	0	3	96	576	5

T_REC_TAP	255
T_REC_BRK	4
T_REC_XTP	0
T_REC_HLD	13
T_REC_XHO	0
T_REC_STR	10
T_REC_BST	0
T_REC_XST	0
T_REC_TTP	0
T_REC_THO	0
T_REC_SLD	10
T_REC_ALL	292
T_NUM_TAP	265
T_NUM_BRK	4
T_NUM_HLD	13
T_NUM_SLD	10
T_NUM_ALL	292
T_JUDGE_TAP	269
T_JUDGE_HLD	64
T_JUDGE_SLD	10
T_JUDGE_ALL	343
TTM_EACHPAIRS	76
TTM_SCR_TAP	132500
TTM_SCR_BRK	10400
TTM_SCR_HLD	13000
TTM_SCR_SLD	15000
TTM_SCR_ALL	170900
TTM_SCR_S	165400
TTM_SCR_SS	170500
TTM_RAT_ACV	10023

