VERSION	0.00.00	1.03.00
FES_MODE	0
BPM_DEF	135.000	135.000	135.000	135.000
MET_DEF	4	4
RESOLUTION	384
CLK_DEF	384
COMPATIBLE_CODE	MA2

BPM	0	0	135.000
MET	0	0	4	4

HLD	3	0	0	384
HLD	5	0	1	384
HLD	7	0	2	192
HLD	7	0	3	192
TAP	8	0	2
TAP	8	96	2
TAP	8	192	2
TAP	8	192	3
TAP	9	0	5
TAP	9	96	5
TAP	9	192	4
TAP	9	192	5
TAP	10	0	3
TAP	10	96	3
TAP	10	192	4
TAP	10	288	4
TAP	11	0	3
TAP	11	96	4
TAP	11	192	2
TAP	11	192	5
TAP	12	0	5
TAP	12	96	5
TAP	12	192	4
TAP	12	192	5
TAP	13	0	2
TAP	13	96	2
TAP	13	192	2
TAP	13	192	3
TAP	14	0	4
TAP	14	192	4
TAP	15	0	5
TAP	15	192	5
TAP	16	0	6
TAP	16	96	6
TAP	16	192	6
STR	17	0	7
SI_	17	0	7	96	288	3
STR	19	0	0
SI_	19	0	0	96	288	4
STR	21	0	6
SI_	21	0	6	96	288	3
STR	23	0	1
SI_	23	0	1	96	288	4
TAP	25	0	7
TAP	25	192	7
TAP	26	0	6
TAP	26	192	6
TAP	27	0	5
TAP	27	192	5
TAP	28	0	4
TAP	28	192	4
TAP	29	0	3
TAP	29	192	3
TAP	30	0	2
TAP	30	192	2
HLD	31	0	1	192
TAP	32	0	0
TAP	32	96	7
TAP	32	192	0
TAP	33	0	0
TAP	33	96	0
TAP	33	192	0
TAP	34	0	1
TAP	34	96	1
TAP	34	192	1
TAP	35	0	2
TAP	35	96	2
TAP	35	192	2
TAP	36	0	3
TAP	36	96	3
TAP	36	192	3
TAP	37	0	4
TAP	37	96	4
TAP	37	192	4
TAP	38	0	5
TAP	38	96	5
TAP	38	192	5
HLD	39	0	6	192
TAP	40	0	7
TAP	40	96	0
BRK	40	192	7
HLD	41	0	0	192
HLD	42	0	7	192
HLD	43	0	0	192
HLD	43	0	1	192
HLD	44	0	6	192
HLD	44	0	7	192
TAP	45	0	0
TAP	45	96	0
TAP	45	192	1
TAP	45	288	1
TAP	46	0	2
TAP	46	96	2
TAP	46	192	3
TAP	46	288	3
STR	47	0	4
SI_	47	0	4	96	288	7
BRK	48	192	0
TAP	49	0	7
TAP	49	96	7
TAP	49	192	7
TAP	50	0	6
TAP	50	96	6
TAP	50	192	6
TAP	51	0	5
TAP	51	96	5
TAP	51	192	4
TAP	51	288	4
TAP	52	0	3
TAP	52	96	4
TAP	52	192	3
TAP	53	0	3
TAP	53	96	3
TAP	53	192	3
TAP	54	0	2
TAP	54	96	2
TAP	54	192	2
TAP	55	0	1
TAP	55	96	1
TAP	55	192	0
TAP	55	288	0
TAP	56	0	7
TAP	56	96	0
BRK	56	192	7
TAP	57	0	0
TAP	57	96	0
TAP	57	192	0
TAP	58	0	1
TAP	58	96	1
TAP	58	192	1
TAP	59	0	2
TAP	59	96	2
TAP	59	192	3
TAP	59	288	3
TAP	60	0	4
TAP	60	96	3
TAP	60	192	4
TAP	61	0	4
TAP	61	96	4
TAP	61	192	4
TAP	62	0	5
TAP	62	96	5
TAP	62	192	5
HLD	63	0	6	192
HLD	63	0	7	192
HLD	64	0	0	192
HLD	64	0	1	192
TAP	65	0	7
TAP	65	96	7
TAP	65	192	0
TAP	65	288	0
STR	66	0	7
SI_	66	0	7	96	288	3
STR	68	0	0
SI_	68	0	0	96	288	4
STR	70	0	6
SI_	70	0	6	96	288	3
STR	72	0	1
SI_	72	0	1	96	288	4
TAP	74	0	7
TAP	74	96	7
TAP	74	192	0
TAP	74	288	0
STR	75	0	0
SI_	75	0	0	96	288	3
STR	75	0	7
SI_	75	0	7	96	288	4

T_REC_TAP	126
T_REC_BRK	3
T_REC_XTP	0
T_REC_HLD	16
T_REC_XHO	0
T_REC_STR	11
T_REC_BST	0
T_REC_XST	0
T_REC_TTP	0
T_REC_THO	0
T_REC_SLD	11
T_REC_ALL	167
T_NUM_TAP	137
T_NUM_BRK	3
T_NUM_HLD	16
T_NUM_SLD	11
T_NUM_ALL	167
T_JUDGE_TAP	140
T_JUDGE_HLD	72
T_JUDGE_SLD	11
T_JUDGE_ALL	223
TTM_EACHPAIRS	11
TTM_SCR_TAP	68500
TTM_SCR_BRK	7800
TTM_SCR_HLD	16000
TTM_SCR_SLD	16500
TTM_SCR_ALL	108800
TTM_SCR_S	105250
TTM_SCR_SS	108500
TTM_RAT_ACV	10027

