VERSION	0.00.00	1.03.00
FES_MODE	0
BPM_DEF	200.000	200.000	200.000	200.000
MET_DEF	4	4
RESOLUTION	384
CLK_DEF	384
COMPATIBLE_CODE	MA2

BPM	0	0	200.000
MET	0	0	4	4
MET	12	0	8	3
MET	15	0	4	4
MET	33	0	4	6
MET	45	0	4	4
MET	68	0	4	3
MET	68	288	4	4
MET	69	288	4	3
MET	70	192	4	4
MET	71	192	4	3
MET	72	96	4	4

BRK	1	348	0
TAP	1	380	4
TAP	2	28	0
TAP	3	18	3
TAP	3	18	4
TAP	3	42	2
TAP	3	42	5
TAP	3	66	1
TAP	3	66	6
TAP	3	90	0
TAP	3	90	7
HLD	4	0	0	384
HLD	5	0	2	384
HLD	6	0	4	384
HLD	7	0	6	192
TAP	7	192	0
TAP	7	288	2
HLD	8	0	7	384
HLD	9	0	5	384
HLD	10	0	3	384
HLD	11	0	1	192
TAP	11	192	7
TAP	12	0	1
STR	12	48	7
SI_	12	48	7	96	96	3
TAP	12	96	0
BRK	12	144	6
BRK	12	144	7
TAP	12	288	6
STR	12	336	0
SI_	12	336	0	96	96	4
TAP	13	0	7
BRK	13	48	0
BRK	13	48	1
TAP	13	192	1
STR	13	240	7
SF_	13	240	7	96	96	3
TAP	13	288	0
BRK	13	336	7
TAP	14	96	6
STR	14	144	0
SF_	14	144	0	96	96	4
TAP	14	192	7
BRK	14	240	0
HLD	15	0	0	288
HLD	15	0	1	288
HLD	16	0	2	288
HLD	16	0	7	288
STR	17	0	0
SCL	17	0	0	96	144	0
SCR	17	0	0	96	144	0
HLD	17	336	5	96
TAP	18	48	4
TAP	18	96	5
TAP	18	144	4
STR	18	192	3
SCL	18	192	3	96	48	0
STR	18	192	6
SCL	18	192	6	96	48	3
STR	19	0	4
SLL	19	0	4	96	144	7
SLR	19	0	4	96	144	1
HLD	19	336	6	96
TAP	20	48	7
TAP	20	96	6
TAP	20	144	7
STR	20	192	0
SI_	20	192	0	96	48	5
STR	20	192	1
SI_	20	192	1	96	48	4
HLD	21	0	3	384
TAP	21	192	4
TAP	21	264	5
TAP	21	336	6
HLD	22	0	7	192
HLD	22	192	0	192
TAP	23	0	6
STR	23	144	0
SI_	23	144	0	96	48	4
TAP	23	168	0
TAP	23	192	0
STR	23	336	6
SI_	23	336	6	96	48	2
TAP	23	360	6
TAP	24	0	6
STR	24	144	7
SI_	24	144	7	96	48	3
TAP	24	168	7
TAP	24	192	7
TAP	24	288	4
STR	25	0	7
SCL	25	0	7	96	144	7
SCR	25	0	7	96	144	7
HLD	25	336	2	96
TAP	26	48	3
TAP	26	96	2
TAP	26	144	3
STR	26	192	1
SCR	26	192	1	96	48	4
STR	26	192	4
SCR	26	192	4	96	48	7
STR	27	0	3
SLL	27	0	3	96	144	6
SLR	27	0	3	96	144	0
HLD	27	336	1	96
TAP	28	48	0
TAP	28	96	1
TAP	28	144	0
STR	28	192	6
SI_	28	192	6	96	48	3
STR	28	192	7
SI_	28	192	7	96	48	2
HLD	29	0	4	384
TAP	29	192	3
TAP	29	264	2
TAP	29	336	1
HLD	30	0	0	192
HLD	30	192	7	192
TAP	31	0	1
STR	31	144	7
SI_	31	144	7	96	48	3
TAP	31	168	7
TAP	31	192	7
STR	31	336	1
SI_	31	336	1	96	48	5
TAP	31	360	1
TAP	32	0	1
STR	32	144	0
SI_	32	144	0	96	48	4
TAP	32	168	0
TAP	32	192	0
TAP	32	288	3
HLD	33	0	1	288
HLD	33	288	0	192
HLD	34	96	7	96
HLD	34	192	6	96
HLD	34	288	7	96
HLD	35	0	0	96
HLD	35	96	1	96
HLD	35	192	0	96
HLD	35	288	1	64
TAP	35	352	2
HLD	36	0	3	288
HLD	36	288	5	288
HLD	37	192	7	240
HLD	38	48	1	48
HLD	38	96	0	48
HLD	38	144	7	48
HLD	38	192	6	48
HLD	38	240	5	48
HLD	38	288	4	48
HLD	38	336	3	48
HLD	39	0	5	96
HLD	39	96	4	96
HLD	39	192	6	96
HLD	39	288	3	96
HLD	40	0	7	96
HLD	40	96	2	96
HLD	40	192	0	96
HLD	40	288	1	96
HLD	41	0	7	64
TAP	41	64	0
HLD	41	96	1	96
HLD	41	288	0	64
TAP	41	352	7
HLD	42	0	6	96
HLD	42	96	7	96
HLD	42	192	5	96
HLD	42	288	0	96
HLD	43	0	4	96
HLD	43	96	1	96
HLD	43	192	5	96
HLD	43	288	4	96
HLD	44	0	6	96
HLD	44	96	3	96
HLD	44	192	7	96
HLD	44	288	2	96
HLD	45	0	0	384
BRK	46	192	0
BRK	46	192	1
STR	47	0	7
SCL	47	0	7	96	384	0
STR	48	0	0
SXL	48	0	0	96	384	3
TAP	48	288	3
TAP	48	336	3
STR	49	0	3
SCL	49	0	3	96	384	4
STR	50	0	4
SXL	50	0	4	96	384	7
TAP	50	288	7
TAP	50	336	7
STR	51	0	7
SCL	51	0	7	96	384	0
STR	52	0	0
SXL	52	0	0	96	384	3
TAP	52	288	3
TAP	52	336	3
STR	53	0	3
SCL	53	0	3	96	384	4
STR	54	0	4
SI_	54	0	4	96	96	1
TAP	54	192	2
TAP	54	288	0
TAP	54	336	0
STR	55	0	0
SCR	55	0	0	96	384	7
TAP	55	96	7
TAP	55	192	7
TAP	55	288	7
STR	56	0	7
SXR	56	0	7	96	384	4
TAP	56	96	4
TAP	56	192	4
TAP	56	288	4
TAP	56	336	4
STR	57	0	4
SCR	57	0	4	96	384	3
TAP	57	96	3
TAP	57	192	3
TAP	57	288	3
STR	58	0	3
SXR	58	0	3	96	384	0
TAP	58	96	0
TAP	58	192	0
TAP	58	288	0
TAP	58	336	0
STR	59	0	0
SCR	59	0	0	96	384	7
TAP	59	96	7
TAP	59	192	7
TAP	59	288	7
STR	60	0	7
SXR	60	0	7	96	384	4
TAP	60	96	4
TAP	60	192	4
TAP	60	288	4
TAP	60	336	4
STR	61	0	4
SUL	61	0	4	96	192	0
SUR	61	0	4	96	192	0
BRK	62	0	1
BRK	62	0	7
TAP	63	0	2
TAP	63	32	3
TAP	63	64	2
TAP	63	96	5
TAP	63	128	4
TAP	63	160	5
TAP	63	192	2
TAP	63	224	3
TAP	63	256	2
TAP	63	288	5
TAP	63	320	4
TAP	63	352	5
TAP	64	0	1
TAP	64	32	0
TAP	64	64	1
TAP	64	96	6
TAP	64	128	7
TAP	64	160	6
TAP	64	192	0
TAP	64	224	7
TAP	64	256	0
TAP	64	288	1
TAP	64	320	2
TAP	64	352	3
TAP	65	0	5
TAP	65	32	4
TAP	65	64	5
TAP	65	96	2
TAP	65	128	3
TAP	65	160	2
TAP	65	192	5
TAP	65	224	4
TAP	65	256	5
TAP	65	288	2
TAP	65	320	3
TAP	65	352	2
TAP	66	0	6
TAP	66	32	7
TAP	66	64	6
TAP	66	96	1
TAP	66	128	0
TAP	66	160	1
TAP	66	192	7
TAP	66	224	0
TAP	66	256	7
TAP	66	288	6
TAP	66	320	5
TAP	66	352	4
TAP	67	0	2
TAP	67	0	3
TAP	67	96	0
TAP	67	96	1
TAP	67	192	4
TAP	67	192	5
STR	67	288	6
SI_	67	288	6	96	48	3
TAP	67	288	7
STR	68	0	0
SI_	68	0	0	96	72	5
BRK	68	0	6
BRK	68	96	0
STR	68	96	7
SI_	68	96	7	96	48	3
BRK	68	192	7
TAP	68	288	4
TAP	68	288	5
TAP	69	0	6
TAP	69	0	7
TAP	69	96	0
TAP	69	96	1
STR	69	192	2
SI_	69	192	2	96	48	7
TAP	69	192	3
BRK	69	288	2
STR	69	288	4
SI_	69	288	4	96	48	0
STR	70	0	3
SI_	70	0	3	96	48	7
BRK	70	0	4
BRK	70	96	3
TAP	70	144	6
TAP	70	192	1
TAP	70	224	7
TAP	70	256	1
TAP	70	288	5
TAP	70	320	3
TAP	70	352	5
TAP	71	0	1
TAP	71	32	7
TAP	71	64	0
TAP	71	96	5
TAP	71	128	3
TAP	71	160	4
TAP	71	192	2
TAP	71	224	0
TAP	71	256	2
TAP	71	288	6
TAP	71	320	4
TAP	71	352	6
TAP	72	0	2
TAP	72	32	0
TAP	72	64	1
TAP	72	96	5
TAP	72	128	7
TAP	72	160	5
TAP	72	192	1
TAP	72	224	3
TAP	72	256	1
TAP	72	288	5
TAP	72	320	7
TAP	72	352	6
TAP	73	0	1
TAP	73	32	3
TAP	73	64	2
TAP	73	96	4
TAP	73	128	6
TAP	73	160	4
TAP	73	192	0
TAP	73	224	2
TAP	73	256	0
TAP	73	288	5
TAP	73	320	4
TAP	73	352	6
TAP	74	0	1
TAP	74	32	0
TAP	74	64	2
HLD	74	96	5	192
TAP	74	288	1
TAP	74	360	1
TAP	75	48	0
HLD	75	96	6	96
TAP	75	192	4
HLD	75	288	1	96
TAP	76	0	3
HLD	76	96	7	96
TAP	76	192	5
HLD	76	288	0	96
TAP	77	0	2
HLD	77	96	7	384
HLD	78	96	1	192
BRK	78	288	0
TAP	79	96	1
TAP	79	120	0
TAP	79	144	1
TAP	79	168	0
TAP	79	192	1
TAP	79	216	0
TAP	79	240	1
TAP	79	264	0
TAP	79	288	2
TAP	79	312	7
TAP	79	336	2
TAP	79	360	7
TAP	80	0	2
TAP	80	24	7
TAP	80	48	2
TAP	80	72	7
TAP	80	96	0
TAP	80	120	6
TAP	80	144	0
TAP	80	168	6
TAP	80	192	0
TAP	80	216	6
TAP	80	240	0
TAP	80	264	6
TAP	80	288	3
TAP	80	312	5
TAP	80	336	3
TAP	80	360	5
TAP	81	0	3
TAP	81	24	5
TAP	81	48	3
TAP	81	72	5
TAP	81	96	4
TAP	81	120	6
TAP	81	144	4
TAP	81	168	6
TAP	81	192	4
TAP	81	216	6
TAP	81	240	4
TAP	81	264	6
TAP	81	288	0
TAP	81	312	7
TAP	81	336	0
TAP	81	360	7
TAP	82	0	0
TAP	82	24	7
TAP	82	48	0
TAP	82	72	7
TAP	82	96	2
TAP	82	120	5
TAP	82	144	2
TAP	82	168	5
TAP	82	192	2
TAP	82	216	5
TAP	82	240	2
TAP	82	264	5
TAP	82	288	3
TAP	82	312	4
TAP	82	336	2
TAP	82	360	5
TAP	83	0	3
TAP	83	24	4
TAP	83	48	2
TAP	83	72	5
TAP	83	96	7
TAP	83	120	6
TAP	83	144	7
TAP	83	168	6
TAP	83	192	7
TAP	83	216	6
TAP	83	240	7
TAP	83	264	6
TAP	83	288	0
TAP	83	312	7
TAP	83	336	0
TAP	83	360	7
TAP	84	0	0
TAP	84	24	7
TAP	84	48	0
TAP	84	72	7
TAP	84	96	1
TAP	84	120	0
TAP	84	144	1
TAP	84	168	0
TAP	84	192	1
TAP	84	216	0
TAP	84	240	1
TAP	84	264	0
TAP	84	288	2
TAP	84	312	3
TAP	84	336	2
TAP	84	360	3
TAP	85	0	2
TAP	85	24	3
TAP	85	48	2
TAP	85	72	3
TAP	85	96	1
TAP	85	120	4
TAP	85	144	1
TAP	85	168	4
TAP	85	192	1
TAP	85	216	4
TAP	85	240	1
TAP	85	264	4
TAP	85	288	0
TAP	85	312	7
TAP	85	336	0
TAP	85	360	7
TAP	86	0	0
TAP	86	24	7
TAP	86	48	0
TAP	86	72	7
TAP	86	96	2
TAP	86	120	7
TAP	86	144	1
TAP	86	168	0
TAP	86	192	2
TAP	86	216	7
TAP	86	240	1
TAP	86	264	0
TAP	86	288	2
TAP	86	312	7
TAP	86	336	1
TAP	86	360	0
TAP	87	0	2
TAP	87	24	7
TAP	87	48	1
TAP	87	72	0
TAP	87	96	4
TAP	87	120	5
TAP	87	144	4
TAP	87	168	5
TAP	87	192	2
TAP	87	216	6
TAP	87	240	2
TAP	87	264	6
TAP	87	288	1
TAP	87	312	7
TAP	87	336	1
TAP	87	360	7
TAP	88	0	0
TAP	88	24	6
TAP	88	48	0
TAP	88	72	6
TAP	88	96	7
TAP	88	120	5
TAP	88	144	7
TAP	88	168	5
TAP	88	192	4
TAP	88	216	6
TAP	88	240	4
TAP	88	264	6
TAP	88	288	2
TAP	88	312	4
TAP	88	336	2
TAP	88	360	4
TAP	89	0	1
TAP	89	24	7
TAP	89	48	1
TAP	89	72	7
TAP	89	96	0
TAP	89	120	5
TAP	89	144	0
TAP	89	168	5
TAP	89	192	7
TAP	89	216	6
TAP	89	240	7
TAP	89	264	6
TAP	89	288	2
TAP	89	312	0
TAP	89	336	2
TAP	89	360	0
TAP	90	0	3
TAP	90	24	4
TAP	90	48	3
TAP	90	72	4
TAP	90	96	7
TAP	90	120	6
TAP	90	144	7
TAP	90	168	6
TAP	90	192	0
TAP	90	216	7
TAP	90	240	0
TAP	90	264	7
TAP	90	288	1
TAP	90	312	0
TAP	90	336	2
TAP	90	360	7
TAP	91	0	3
TAP	91	24	6
TAP	91	48	4
TAP	91	72	5
TAP	91	96	0
TAP	91	120	7
TAP	91	144	1
TAP	91	168	6
TAP	91	192	0
TAP	91	216	7
TAP	91	240	1
TAP	91	264	6
TAP	91	288	1
TAP	91	312	0
TAP	91	336	2
TAP	91	360	7
TAP	92	0	1
TAP	92	24	0
TAP	92	48	2
TAP	92	72	7
TAP	92	96	3
TAP	92	120	4
TAP	92	144	2
TAP	92	168	5
TAP	92	192	3
TAP	92	216	4
TAP	92	240	2
TAP	92	264	5
TAP	92	288	2
TAP	92	312	3
TAP	92	336	1
TAP	92	360	4
TAP	93	0	2
TAP	93	24	3
TAP	93	48	1
TAP	93	72	4
TAP	93	96	0
TAP	93	120	5
TAP	93	144	2
TAP	93	168	7
TAP	93	192	1
TAP	93	216	4
TAP	93	240	3
TAP	93	264	6
TAP	93	288	1
TAP	93	312	4
TAP	93	336	3
TAP	93	360	6
TAP	94	0	0
TAP	94	24	5
TAP	94	48	2
TAP	94	72	7
TAP	94	96	1
TAP	94	120	0
TAP	94	144	2
TAP	94	168	7
TAP	94	192	3
TAP	94	216	6
TAP	94	240	4
TAP	94	264	5
TAP	94	288	2
TAP	94	312	3
TAP	94	336	1
TAP	94	360	4
TAP	95	0	0
TAP	95	24	5
TAP	95	48	7
TAP	95	72	6
STR	95	96	0
SUL	95	96	0	96	192	7
TAP	96	0	6
TAP	96	48	6
STR	96	96	6
SUL	96	96	6	96	96	2
STR	96	288	1
SUR	96	288	1	96	96	5
STR	97	96	7
SLR	97	96	7	96	144	5
TAP	98	0	2
TAP	98	48	7
STR	98	96	2
SCL	98	96	2	96	192	4
STR	98	288	4
SCL	98	288	4	96	96	1
TAP	99	96	7
STR	99	192	0
SI_	99	192	0	96	48	2
STR	99	288	0
SI_	99	288	0	96	48	4
STR	100	0	0
SI_	100	0	0	96	48	6
STR	100	96	0
SI_	100	96	0	96	48	4
STR	100	192	0
SI_	100	192	0	96	48	2
STR	100	288	0
SI_	100	288	0	96	48	4
STR	101	0	0
SCL	101	0	0	96	288	1
STR	102	96	7
SF_	102	96	7	96	192	3
STR	103	96	6
SI_	103	96	6	96	48	3
TAP	103	128	6
TAP	103	160	7
TAP	103	192	6
STR	103	288	1
SI_	103	288	1	96	48	4
TAP	103	320	1
TAP	103	352	0
TAP	104	0	1
STR	104	96	5
SI_	104	96	5	96	48	0
TAP	104	128	5
TAP	104	160	7
TAP	104	192	5
STR	104	288	2
SI_	104	288	2	96	48	7
TAP	104	320	2
TAP	104	352	0
TAP	105	0	2
STR	105	96	6
SI_	105	96	6	96	48	3
TAP	105	128	6
TAP	105	160	6
TAP	105	192	6
STR	105	288	1
SI_	105	288	1	96	48	4
TAP	105	320	1
TAP	105	352	1
TAP	106	0	1
STR	106	96	5
SI_	106	96	5	96	48	0
TAP	106	128	5
TAP	106	160	5
TAP	106	192	5
STR	106	288	2
SI_	106	288	2	96	48	7
TAP	106	320	2
TAP	106	352	2
TAP	107	0	2
TAP	107	96	6
TAP	107	128	6
TAP	107	160	3
TAP	107	192	6
TAP	107	224	6
TAP	107	256	2
TAP	107	288	6
TAP	107	320	6
TAP	107	352	1
TAP	108	0	6
TAP	108	32	6
TAP	108	64	0
TAP	108	96	1
TAP	108	128	1
TAP	108	160	4
TAP	108	192	1
TAP	108	224	1
TAP	108	256	5
TAP	108	288	1
TAP	108	320	1
TAP	108	352	6
TAP	109	0	1
TAP	109	32	1
TAP	109	64	7
BRK	109	96	0
TAP	109	120	6
TAP	109	144	2
TAP	109	168	4
TAP	109	192	1
TAP	109	216	7
TAP	109	240	3
TAP	109	264	5
BRK	109	288	2
TAP	109	312	4
TAP	109	336	1
TAP	109	360	6
TAP	110	0	3
TAP	110	24	5
TAP	110	48	1
TAP	110	72	7
BRK	110	96	4
TAP	110	120	5
TAP	110	144	3
TAP	110	168	4
TAP	110	192	2
TAP	110	216	3
TAP	110	240	1
TAP	110	264	5
BRK	110	288	7
TAP	110	312	6
TAP	110	336	0
TAP	110	360	7
TAP	111	0	1
TAP	111	24	0
TAP	111	48	2
TAP	111	72	6
BRK	111	96	0
TAP	111	120	1
TAP	111	144	2
BRK	111	144	7
TAP	111	168	6
BRK	111	192	0
TAP	111	192	5
TAP	111	216	1
TAP	111	240	2
BRK	111	240	7
TAP	111	264	6
BRK	111	288	1
TAP	111	288	5
TAP	111	312	2
TAP	111	336	3
BRK	111	336	7
TAP	111	360	6
BRK	112	0	1
TAP	112	0	5
TAP	112	24	2
TAP	112	48	3
BRK	112	48	7
TAP	112	72	6
BRK	112	96	1
TAP	112	96	5
TAP	112	120	2
TAP	112	144	3
BRK	112	144	6
TAP	112	168	5
BRK	112	192	1
TAP	112	192	4
TAP	112	216	2
TAP	112	240	3
BRK	112	240	6
TAP	112	264	5
BRK	112	288	0
TAP	112	288	4
TAP	112	300	1
TAP	112	312	2
TAP	112	324	3
TAP	112	336	4
TAP	112	348	5
TAP	112	360	6
TAP	112	372	7
BRK	113	0	0
TAP	113	12	1
TAP	113	24	2
TAP	113	36	3
TAP	113	48	4
TAP	113	60	5
TAP	113	72	6
TAP	113	84	7
BRK	113	96	0
BRK	113	96	1
TAP	118	96	0
TAP	118	96	7
TAP	118	120	1
TAP	118	120	6
TAP	118	144	2
TAP	118	144	5
TAP	118	168	3
TAP	118	168	4
TAP	119	168	0
TAP	119	200	4
BRK	119	232	0

T_REC_TAP	588
T_REC_BRK	39
T_REC_XTP	0
T_REC_HLD	72
T_REC_XHO	0
T_REC_STR	65
T_REC_BST	0
T_REC_XST	0
T_REC_TTP	0
T_REC_THO	0
T_REC_SLD	70
T_REC_ALL	834
T_NUM_TAP	653
T_NUM_BRK	39
T_NUM_HLD	72
T_NUM_SLD	70
T_NUM_ALL	834
T_JUDGE_TAP	692
T_JUDGE_HLD	246
T_JUDGE_SLD	70
T_JUDGE_ALL	1008
TTM_EACHPAIRS	43
TTM_SCR_TAP	326500
TTM_SCR_BRK	101400
TTM_SCR_HLD	72000
TTM_SCR_SLD	105000
TTM_SCR_ALL	604900
TTM_SCR_S	583000
TTM_SCR_SS	601000
TTM_RAT_ACV	10064

