VERSION	0.00.00	1.03.00
FES_MODE	0
BPM_DEF	200.000	200.000	200.000	200.000
MET_DEF	4	4
RESOLUTION	384
CLK_DEF	384
COMPATIBLE_CODE	MA2

BPM	0	0	200.000
MET	0	0	4	4
MET	12	0	8	3
MET	15	0	4	4
MET	33	0	4	6
MET	45	0	4	4
MET	68	0	4	3
MET	68	288	4	4
MET	69	288	4	3
MET	70	192	4	4
MET	71	192	4	3
MET	72	96	4	4

HLD	1	352	2	448
BRK	3	32	5
HLD	4	0	5	384
HLD	5	0	4	384
HLD	6	0	3	384
HLD	7	0	2	192
TAP	7	192	5
TAP	7	288	3
TAP	7	288	4
HLD	8	0	1	384
HLD	9	0	3	384
HLD	10	0	4	384
HLD	11	0	6	192
TAP	11	192	1
HLD	12	0	4	96
HLD	12	0	5	96
TAP	12	144	4
TAP	12	144	5
HLD	12	288	0	96
HLD	12	288	7	96
TAP	13	48	0
TAP	13	48	7
HLD	13	192	2	96
HLD	13	192	3	96
TAP	13	336	2
TAP	13	336	3
HLD	14	96	1	96
HLD	14	96	6	96
TAP	14	240	1
TAP	14	240	6
STR	15	0	6
SCL	15	0	6	96	216	1
HLD	16	0	0	192
BRK	16	192	7
HLD	17	0	2	288
TAP	17	0	5
TAP	17	96	5
TAP	17	192	3
TAP	17	288	3
TAP	18	0	5
TAP	18	48	5
TAP	18	96	4
TAP	18	192	3
TAP	18	192	6
TAP	19	0	2
HLD	19	0	5	288
TAP	19	96	2
TAP	19	192	4
TAP	19	288	4
TAP	20	0	2
TAP	20	48	2
TAP	20	96	3
TAP	20	192	1
TAP	20	192	4
TAP	20	288	2
TAP	20	288	3
HLD	21	0	1	192
HLD	21	192	0	192
HLD	22	0	7	192
TAP	22	192	6
HLD	23	0	1	96
HLD	23	0	3	96
HLD	23	192	3	96
HLD	23	192	5	96
HLD	24	0	3	96
HLD	24	0	4	96
TAP	24	192	2
TAP	24	192	5
TAP	24	288	3
TAP	24	288	4
TAP	25	0	2
HLD	25	0	5	288
TAP	25	96	2
TAP	25	192	4
TAP	25	288	4
TAP	26	0	2
TAP	26	48	2
TAP	26	96	3
TAP	26	192	1
TAP	26	192	4
HLD	27	0	2	288
TAP	27	0	5
TAP	27	96	5
TAP	27	192	3
TAP	27	288	3
TAP	28	0	5
TAP	28	48	5
TAP	28	96	4
TAP	28	192	3
TAP	28	192	6
TAP	28	288	4
TAP	28	288	5
HLD	29	0	6	192
HLD	29	192	7	192
HLD	30	0	0	192
TAP	30	192	1
HLD	31	0	4	96
HLD	31	0	6	96
HLD	31	192	2	96
HLD	31	192	4	96
HLD	32	0	3	96
HLD	32	0	4	96
TAP	32	192	2
TAP	32	192	3
BRK	32	288	4
BRK	32	288	5
HLD	33	0	5	288
TAP	33	96	4
TAP	33	192	4
STR	33	288	6
SI_	33	288	6	96	96	3
HLD	34	192	2	288
TAP	34	288	3
TAP	35	0	3
STR	35	96	1
SI_	35	96	1	96	96	4
HLD	36	0	2	192
TAP	36	0	3
TAP	36	96	4
TAP	36	192	5
TAP	36	288	4
HLD	36	288	5	192
TAP	37	0	3
TAP	37	96	2
TAP	37	192	3
TAP	37	192	4
TAP	37	288	2
TAP	37	288	5
STR	38	0	1
SUL	38	0	1	96	192	4
STR	38	0	6
SUR	38	0	6	96	192	3
TAP	39	0	2
TAP	39	0	3
TAP	39	96	4
TAP	39	192	5
TAP	39	288	6
TAP	39	288	7
TAP	40	0	0
TAP	40	96	1
TAP	40	192	2
TAP	40	192	3
TAP	40	288	1
TAP	40	288	4
TAP	41	0	0
TAP	41	0	5
TAP	41	96	6
TAP	41	96	7
TAP	41	288	6
TAP	42	0	4
TAP	42	0	5
TAP	42	96	3
TAP	42	192	2
TAP	42	288	0
TAP	42	288	1
TAP	43	0	7
TAP	43	96	6
TAP	43	192	5
TAP	43	288	5
TAP	44	0	4
TAP	44	0	6
TAP	44	96	2
TAP	44	192	2
TAP	44	288	1
TAP	44	288	3
STR	45	0	3
SCL	45	0	3	96	480	4
STR	45	0	4
SCR	45	0	4	96	480	3
HLD	47	0	4	384
HLD	48	0	3	288
TAP	48	288	5
HLD	49	0	5	384
HLD	50	0	2	288
TAP	50	288	6
HLD	51	0	6	384
HLD	52	0	1	288
TAP	52	288	7
HLD	53	0	7	384
TAP	54	0	0
TAP	54	192	0
TAP	54	288	0
TAP	54	288	7
HLD	55	0	7	384
TAP	55	96	0
TAP	55	192	1
TAP	55	288	2
HLD	56	0	3	384
TAP	56	96	4
TAP	56	192	5
TAP	56	288	6
HLD	57	0	7	384
TAP	57	96	3
TAP	57	192	2
TAP	57	288	1
HLD	58	0	0	288
TAP	58	96	4
TAP	58	192	5
TAP	58	288	6
TAP	59	0	0
TAP	59	0	7
TAP	59	96	0
TAP	59	96	7
TAP	59	192	1
TAP	59	192	6
TAP	59	288	1
TAP	59	288	6
TAP	60	0	2
TAP	60	0	5
TAP	60	96	2
TAP	60	96	5
TAP	60	192	3
TAP	60	192	4
TAP	60	288	3
TAP	60	288	4
STR	61	0	4
SF_	61	0	4	96	192	0
BRK	62	0	1
BRK	62	0	7
TAP	63	0	5
TAP	63	64	5
TAP	63	96	4
TAP	63	192	6
TAP	63	192	7
TAP	63	288	6
TAP	63	288	7
TAP	64	0	2
TAP	64	64	2
TAP	64	96	3
TAP	64	192	0
TAP	64	192	1
TAP	64	288	0
TAP	64	288	1
TAP	65	0	5
TAP	65	64	5
TAP	65	96	3
TAP	65	192	0
TAP	65	192	6
TAP	65	288	0
TAP	65	288	7
TAP	66	0	2
TAP	66	64	2
TAP	66	96	4
TAP	66	192	1
TAP	66	192	7
TAP	66	288	0
TAP	66	288	7
HLD	67	0	1	96
HLD	67	96	7	96
HLD	67	192	0	96
HLD	67	288	3	96
TAP	68	0	2
TAP	68	48	2
TAP	68	96	2
BRK	68	192	4
HLD	68	288	6	96
HLD	69	0	0	96
HLD	69	96	7	96
HLD	69	192	4	96
TAP	69	288	5
TAP	69	336	5
TAP	70	0	5
BRK	70	96	3
TAP	70	192	5
TAP	70	256	5
TAP	70	288	4
TAP	71	0	6
TAP	71	64	6
TAP	71	96	7
TAP	71	192	1
TAP	71	256	1
TAP	71	288	0
TAP	72	0	2
TAP	72	64	2
HLD	72	96	3	96
HLD	72	192	2	96
HLD	72	288	1	96
HLD	73	0	0	96
HLD	73	96	7	96
HLD	73	192	6	96
HLD	73	288	5	96
HLD	74	0	4	96
HLD	74	96	3	288
TAP	74	192	2
TAP	74	288	1
TAP	75	0	0
HLD	75	96	7	288
TAP	75	192	6
TAP	75	288	5
TAP	76	0	4
TAP	76	96	2
TAP	76	96	3
TAP	76	192	3
TAP	76	192	4
TAP	76	288	4
TAP	76	288	5
TAP	77	0	3
TAP	77	0	4
HLD	77	96	2	288
HLD	77	96	5	288
HLD	78	96	0	96
HLD	78	96	7	96
BRK	78	288	2
BRK	78	288	5
TAP	79	96	1
TAP	79	144	1
TAP	79	192	6
TAP	79	240	6
TAP	79	288	4
TAP	79	336	4
TAP	80	0	7
TAP	80	48	7
TAP	80	96	0
TAP	80	144	0
TAP	80	192	3
TAP	80	240	3
TAP	80	288	2
TAP	80	336	2
TAP	81	0	7
TAP	81	48	7
TAP	81	96	4
TAP	81	144	4
TAP	81	192	5
TAP	81	240	5
TAP	81	288	1
TAP	81	336	1
TAP	82	0	6
TAP	82	48	6
TAP	82	96	6
TAP	82	96	7
TAP	82	192	0
TAP	82	192	1
TAP	82	288	2
TAP	82	288	3
TAP	83	0	4
TAP	83	0	5
TAP	83	96	6
TAP	83	144	6
TAP	83	192	1
TAP	83	240	1
TAP	83	288	3
TAP	83	336	3
TAP	84	0	0
TAP	84	48	0
TAP	84	96	7
TAP	84	144	7
TAP	84	192	4
TAP	84	240	4
TAP	84	288	5
TAP	84	336	5
TAP	85	0	0
TAP	85	48	0
TAP	85	96	3
TAP	85	144	3
TAP	85	192	2
TAP	85	240	2
TAP	85	288	6
TAP	85	336	6
TAP	86	0	1
TAP	86	48	1
TAP	86	96	0
TAP	86	96	1
TAP	86	192	2
TAP	86	192	3
TAP	86	288	4
TAP	86	288	5
TAP	87	0	6
TAP	87	0	7
TAP	87	96	5
TAP	87	144	5
TAP	87	192	4
TAP	87	240	5
TAP	87	288	2
TAP	87	336	2
TAP	88	0	3
TAP	88	48	2
TAP	88	96	6
TAP	88	144	6
TAP	88	192	4
TAP	88	240	6
TAP	88	288	1
TAP	88	336	1
TAP	89	0	3
TAP	89	48	1
TAP	89	96	6
TAP	89	144	6
TAP	89	192	7
TAP	89	240	6
TAP	89	288	1
TAP	89	336	1
TAP	90	0	0
TAP	90	48	1
TAP	90	96	3
TAP	90	96	4
TAP	90	192	5
TAP	90	192	6
TAP	90	288	0
TAP	90	288	7
TAP	91	0	1
TAP	91	0	2
TAP	91	96	5
TAP	91	144	5
TAP	91	192	4
TAP	91	240	5
TAP	91	288	2
TAP	91	336	2
TAP	92	0	3
TAP	92	48	2
TAP	92	96	6
TAP	92	144	6
TAP	92	192	4
TAP	92	240	6
TAP	92	288	1
TAP	92	336	1
TAP	93	0	3
TAP	93	48	1
TAP	93	96	6
TAP	93	144	6
TAP	93	192	7
TAP	93	240	6
TAP	93	288	1
TAP	93	336	1
TAP	94	0	0
TAP	94	48	1
TAP	94	96	5
TAP	94	144	5
TAP	94	192	7
TAP	94	240	5
TAP	94	288	2
TAP	94	336	2
TAP	95	0	0
TAP	95	48	2
HLD	95	96	6	288
TAP	96	0	3
HLD	96	96	2	96
HLD	96	96	5	96
TAP	96	288	1
TAP	96	288	6
HLD	97	96	7	192
TAP	97	288	0
TAP	98	0	1
HLD	98	96	2	288
TAP	98	192	3
TAP	98	288	4
TAP	99	0	5
HLD	99	96	6	192
TAP	99	288	7
TAP	100	0	0
HLD	100	96	1	288
TAP	100	192	0
TAP	100	288	7
TAP	101	0	6
HLD	101	96	5	288
TAP	101	192	4
TAP	101	288	3
TAP	102	0	2
BRK	102	96	1
BRK	102	96	6
BRK	102	288	2
BRK	102	288	5
TAP	103	96	4
TAP	103	128	4
TAP	103	160	3
TAP	103	192	4
TAP	103	288	2
TAP	103	320	2
TAP	103	352	3
TAP	104	0	2
TAP	104	96	5
TAP	104	128	5
TAP	104	160	4
TAP	104	192	5
TAP	104	288	3
TAP	104	288	4
TAP	105	0	0
TAP	105	0	7
TAP	105	96	2
TAP	105	128	2
TAP	105	160	3
TAP	105	192	2
TAP	105	288	6
TAP	105	320	6
TAP	105	352	5
TAP	106	0	6
TAP	106	96	1
TAP	106	128	1
TAP	106	160	0
TAP	106	192	1
TAP	106	288	0
TAP	106	288	7
TAP	107	0	3
TAP	107	0	4
TAP	107	96	1
TAP	107	128	1
TAP	107	160	3
TAP	107	192	1
TAP	107	288	6
TAP	107	320	6
TAP	107	352	4
TAP	108	0	6
TAP	108	96	2
TAP	108	128	2
TAP	108	160	0
TAP	108	192	2
TAP	108	288	5
TAP	108	320	5
TAP	108	352	7
TAP	109	0	5
TAP	109	96	3
TAP	109	144	3
TAP	109	192	4
TAP	109	240	4
TAP	109	288	1
TAP	109	336	1
TAP	110	0	6
TAP	110	48	6
TAP	110	96	0
TAP	110	96	7
TAP	110	144	0
TAP	110	144	7
TAP	110	192	1
TAP	110	192	6
TAP	110	240	1
TAP	110	240	6
TAP	110	288	2
TAP	110	288	5
TAP	110	336	2
TAP	110	336	5
TAP	111	0	3
TAP	111	0	4
TAP	111	48	3
TAP	111	48	4
TAP	111	96	3
TAP	111	120	4
TAP	111	144	3
TAP	111	168	4
TAP	111	192	3
TAP	111	216	4
TAP	111	240	3
TAP	111	264	4
TAP	111	288	2
TAP	111	312	5
TAP	111	336	2
TAP	111	360	5
TAP	112	0	2
TAP	112	24	5
TAP	112	48	2
TAP	112	72	5
TAP	112	96	1
TAP	112	120	6
TAP	112	144	1
TAP	112	168	6
TAP	112	192	1
TAP	112	216	6
TAP	112	240	1
TAP	112	264	6
TAP	112	288	0
TAP	112	312	7
TAP	112	336	0
TAP	112	360	7
TAP	113	0	0
HLD	113	96	1	1936
HLD	113	96	6	2368

T_REC_TAP	446
T_REC_BRK	14
T_REC_XTP	0
T_REC_HLD	87
T_REC_XHO	0
T_REC_STR	8
T_REC_BST	0
T_REC_XST	0
T_REC_TTP	0
T_REC_THO	0
T_REC_SLD	8
T_REC_ALL	563
T_NUM_TAP	454
T_NUM_BRK	14
T_NUM_HLD	87
T_NUM_SLD	8
T_NUM_ALL	563
T_JUDGE_TAP	468
T_JUDGE_HLD	445
T_JUDGE_SLD	8
T_JUDGE_ALL	921
TTM_EACHPAIRS	99
TTM_SCR_TAP	227000
TTM_SCR_BRK	36400
TTM_SCR_HLD	87000
TTM_SCR_SLD	12000
TTM_SCR_ALL	362400
TTM_SCR_S	350200
TTM_SCR_SS	361000
TTM_RAT_ACV	10038

