VERSION	0.00.00	1.03.00
FES_MODE	0
BPM_DEF	200.000	200.000	200.000	200.000
MET_DEF	4	4
RESOLUTION	384
CLK_DEF	384
COMPATIBLE_CODE	MA2

BPM	0	0	200.000
MET	0	0	4	4
MET	12	0	8	3
MET	15	0	4	4
MET	33	0	4	6
MET	45	0	4	4
MET	68	0	4	3
MET	68	288	4	4
MET	69	288	4	3
MET	70	192	4	4
MET	71	192	4	3
MET	72	96	4	4

HLD	4	0	5	384
HLD	5	0	4	384
HLD	6	0	3	384
HLD	7	0	2	192
TAP	7	192	3
HLD	8	0	6	384
HLD	9	0	7	384
HLD	10	0	0	384
HLD	11	0	1	192
TAP	11	192	0
HLD	12	0	0	144
HLD	12	0	1	144
HLD	12	288	6	144
HLD	12	288	7	144
HLD	13	192	2	144
HLD	13	192	3	144
HLD	14	96	4	144
HLD	14	96	5	144
HLD	15	0	3	192
HLD	15	0	4	192
HLD	16	0	2	192
HLD	16	0	5	192
TAP	17	0	4
TAP	17	96	4
TAP	17	192	3
TAP	17	288	3
TAP	18	0	2
TAP	18	96	2
TAP	18	192	2
TAP	18	192	3
TAP	19	0	3
TAP	19	96	3
TAP	19	192	4
TAP	19	288	4
TAP	20	0	5
TAP	20	96	5
TAP	20	192	4
TAP	20	192	5
HLD	21	0	6	192
TAP	21	192	7
HLD	22	0	1	192
TAP	22	192	0
TAP	23	0	2
TAP	23	0	3
TAP	23	192	4
TAP	23	192	5
HLD	24	0	3	96
HLD	24	0	4	96
BRK	24	192	2
BRK	24	192	5
TAP	25	0	4
TAP	25	96	4
TAP	25	192	3
TAP	25	288	3
TAP	26	0	2
TAP	26	96	2
TAP	26	192	1
TAP	26	192	3
TAP	27	0	3
TAP	27	96	3
TAP	27	192	4
TAP	27	288	4
TAP	28	0	5
TAP	28	96	5
TAP	28	192	4
TAP	28	192	6
HLD	29	0	6	192
TAP	29	192	7
HLD	30	0	1	192
TAP	30	192	0
TAP	31	0	4
TAP	31	0	5
TAP	31	192	2
TAP	31	192	3
HLD	32	0	3	96
HLD	32	0	4	96
BRK	32	192	2
BRK	32	192	5
TAP	33	0	4
HLD	33	96	4	96
TAP	33	288	3
TAP	33	288	5
TAP	34	192	3
HLD	34	288	3	96
TAP	35	96	2
TAP	35	96	4
TAP	36	0	5
HLD	36	96	4	96
HLD	36	96	5	96
TAP	36	288	2
HLD	37	0	2	96
HLD	37	0	3	96
TAP	37	192	3
TAP	37	192	4
HLD	37	288	3	96
HLD	37	288	4	96
TAP	38	96	2
TAP	38	96	5
HLD	38	192	2	96
HLD	38	192	5	96
TAP	39	0	6
TAP	39	96	6
TAP	39	192	6
TAP	39	288	7
TAP	40	0	7
TAP	40	96	7
TAP	40	192	0
TAP	40	288	0
TAP	41	0	0
HLD	41	96	1	192
TAP	42	0	2
TAP	42	96	2
TAP	42	192	3
TAP	42	288	5
TAP	43	0	5
TAP	43	96	4
TAP	43	192	2
TAP	43	288	2
TAP	44	0	2
TAP	44	0	3
TAP	44	96	5
TAP	44	192	5
TAP	44	288	4
TAP	44	288	5
STR	45	0	4
SCR	45	0	4	96	576	3
HLD	47	0	4	384
HLD	48	0	3	384
HLD	49	0	2	384
TAP	50	0	1
HLD	51	0	3	384
HLD	52	0	4	384
HLD	53	0	5	384
TAP	54	0	6
TAP	54	192	6
HLD	55	0	5	576
TAP	55	192	4
TAP	56	0	3
TAP	56	192	4
HLD	57	0	2	576
TAP	57	192	3
TAP	58	0	4
TAP	58	192	3
HLD	59	0	6	576
TAP	59	192	7
TAP	60	0	0
TAP	60	192	7
HLD	61	0	0	192
HLD	61	0	7	192
BRK	62	0	1
BRK	62	0	6
TAP	63	0	0
TAP	63	96	1
TAP	63	192	2
TAP	63	288	3
TAP	64	0	4
TAP	64	96	5
TAP	64	192	6
TAP	64	288	0
TAP	64	288	7
TAP	65	0	7
TAP	65	96	6
TAP	65	192	5
TAP	65	288	4
TAP	66	0	3
TAP	66	96	2
TAP	66	192	1
TAP	66	288	0
TAP	66	288	7
TAP	67	0	6
TAP	67	96	6
TAP	67	96	7
TAP	67	192	1
TAP	67	288	0
TAP	67	288	1
TAP	68	0	7
TAP	68	96	7
TAP	68	192	0
TAP	68	192	7
TAP	68	288	1
TAP	69	0	0
TAP	69	0	1
TAP	69	96	6
TAP	69	192	6
TAP	69	192	7
TAP	69	288	0
TAP	70	0	0
TAP	70	96	0
TAP	70	96	7
TAP	70	192	0
TAP	70	288	1
TAP	71	0	2
TAP	71	96	3
TAP	71	192	4
TAP	71	288	5
TAP	72	0	6
BRK	72	96	7
TAP	72	192	6
TAP	72	288	5
TAP	73	0	4
TAP	73	96	3
TAP	73	192	2
TAP	73	288	1
TAP	74	0	0
HLD	74	96	1	192
HLD	74	288	2	192
HLD	75	96	3	192
TAP	75	288	4
HLD	76	96	4	96
HLD	76	96	5	96
HLD	76	288	2	96
HLD	76	288	3	96
HLD	77	96	3	192
HLD	77	96	4	192
BRK	78	96	2
BRK	78	96	5
BRK	78	288	1
BRK	78	288	6
TAP	79	96	1
TAP	79	192	0
TAP	79	192	1
TAP	79	288	6
TAP	80	0	6
TAP	80	0	7
TAP	80	96	2
TAP	80	192	2
TAP	80	192	3
TAP	80	288	5
TAP	81	0	4
TAP	81	0	5
TAP	81	96	2
TAP	81	192	1
TAP	81	192	3
TAP	81	288	5
TAP	82	0	4
TAP	82	0	6
BRK	82	96	7
BRK	82	192	7
BRK	82	288	0
BRK	83	0	0
TAP	83	96	6
TAP	83	192	6
TAP	83	192	7
TAP	83	288	1
TAP	84	0	0
TAP	84	0	1
TAP	84	96	5
TAP	84	192	4
TAP	84	192	5
TAP	84	288	2
TAP	85	0	2
TAP	85	0	3
TAP	85	96	5
TAP	85	192	4
TAP	85	192	6
TAP	85	288	2
TAP	86	0	1
TAP	86	0	3
BRK	86	96	0
BRK	86	192	7
BRK	86	288	6
BRK	87	0	5
TAP	87	96	4
TAP	87	96	5
TAP	87	192	4
TAP	87	192	5
TAP	87	288	2
TAP	87	288	3
TAP	88	0	2
TAP	88	0	3
TAP	88	96	6
TAP	88	96	7
TAP	88	192	6
TAP	88	192	7
TAP	88	288	0
TAP	88	288	1
TAP	89	0	0
TAP	89	0	1
TAP	89	96	6
TAP	89	96	7
TAP	89	192	0
TAP	89	192	5
TAP	89	288	0
TAP	89	288	1
TAP	90	0	2
TAP	90	0	7
BRK	90	96	6
BRK	90	192	7
BRK	90	288	0
BRK	91	0	1
TAP	91	96	2
TAP	91	96	3
TAP	91	192	2
TAP	91	192	3
TAP	91	288	4
TAP	91	288	5
TAP	92	0	4
TAP	92	0	5
TAP	92	96	0
TAP	92	96	1
TAP	92	192	0
TAP	92	192	1
TAP	92	288	6
TAP	92	288	7
TAP	93	0	6
TAP	93	0	7
TAP	93	96	0
TAP	93	96	1
TAP	93	192	2
TAP	93	192	7
TAP	93	288	6
TAP	93	288	7
TAP	94	0	0
TAP	94	0	5
TAP	94	96	0
TAP	94	96	7
TAP	94	192	1
TAP	94	192	6
TAP	94	288	2
TAP	94	288	5
TAP	95	0	3
TAP	95	0	4
HLD	95	96	4	192
HLD	96	96	2	192
HLD	96	288	1	192
HLD	97	96	0	192
TAP	97	288	7
HLD	98	96	6	192
HLD	98	288	5	192
HLD	99	96	4	192
TAP	99	288	3
HLD	100	96	2	192
TAP	100	288	3
HLD	101	96	5	192
TAP	101	288	4
TAP	102	96	3
TAP	102	96	4
BRK	102	288	2
BRK	102	288	5
TAP	103	96	1
TAP	103	192	2
TAP	103	288	3
TAP	104	0	4
TAP	104	96	5
TAP	104	192	6
TAP	104	288	0
TAP	104	288	7
TAP	105	0	0
TAP	105	0	7
TAP	105	96	6
TAP	105	192	5
TAP	105	288	4
TAP	106	0	3
TAP	106	96	2
TAP	106	192	1
TAP	106	288	0
TAP	106	288	7
TAP	107	0	0
TAP	107	0	7
TAP	107	96	1
TAP	107	192	0
TAP	107	192	1
TAP	107	288	6
TAP	108	0	6
TAP	108	0	7
TAP	108	96	2
TAP	108	192	2
TAP	108	192	3
TAP	108	288	5
TAP	109	0	4
TAP	109	0	5
TAP	109	96	3
TAP	109	144	3
TAP	109	192	3
TAP	109	288	5
TAP	109	336	5
TAP	110	0	5
TAP	110	96	2
TAP	110	144	2
TAP	110	192	2
TAP	110	288	4
TAP	110	336	4
TAP	111	0	4
TAP	111	96	3
TAP	111	96	4
TAP	111	144	3
TAP	111	144	4
TAP	111	192	3
TAP	111	192	4
TAP	111	288	2
TAP	111	288	5
TAP	111	336	2
TAP	111	336	5
TAP	112	0	2
TAP	112	0	5
TAP	112	96	1
TAP	112	96	6
TAP	112	144	1
TAP	112	144	6
TAP	112	192	1
TAP	112	192	6
TAP	112	288	0
TAP	112	288	7
TAP	112	336	0
TAP	112	336	7
TAP	113	0	0
TAP	113	0	7
BRK	113	96	1
BRK	113	96	6

T_REC_TAP	312
T_REC_BRK	27
T_REC_XTP	0
T_REC_HLD	68
T_REC_XHO	0
T_REC_STR	1
T_REC_BST	0
T_REC_XST	0
T_REC_TTP	0
T_REC_THO	0
T_REC_SLD	1
T_REC_ALL	409
T_NUM_TAP	313
T_NUM_BRK	27
T_NUM_HLD	68
T_NUM_SLD	1
T_NUM_ALL	409
T_JUDGE_TAP	340
T_JUDGE_HLD	300
T_JUDGE_SLD	1
T_JUDGE_ALL	641
TTM_EACHPAIRS	106
TTM_SCR_TAP	156500
TTM_SCR_BRK	70200
TTM_SCR_HLD	68000
TTM_SCR_SLD	1500
TTM_SCR_ALL	296200
TTM_SCR_S	284700
TTM_SCR_SS	293500
TTM_RAT_ACV	10091

