VERSION	0.00.00	1.03.00
FES_MODE	0
BPM_DEF	200.000	200.000	200.000	200.000
MET_DEF	4	4
RESOLUTION	384
CLK_DEF	384
COMPATIBLE_CODE	MA2

BPM	0	0	200.000
MET	0	0	4	4
MET	12	0	8	3
MET	15	0	4	4
MET	33	0	4	6
MET	45	0	4	4
MET	68	0	4	3
MET	68	288	4	4
MET	69	288	4	3
MET	70	192	4	4
MET	71	192	4	3
MET	72	96	4	4

HLD	4	0	3	192
HLD	5	0	2	192
HLD	6	0	1	192
HLD	7	0	2	192
HLD	7	0	3	192
HLD	8	0	4	192
HLD	9	0	5	192
HLD	10	0	6	192
HLD	11	0	4	192
HLD	11	0	5	192
HLD	12	0	3	144
HLD	12	288	4	144
HLD	13	192	3	144
HLD	14	96	4	144
TAP	15	0	3
BRK	16	0	3
BRK	16	0	4
TAP	17	0	3
TAP	17	192	3
TAP	18	0	3
TAP	19	0	2
TAP	19	192	2
TAP	20	0	2
TAP	21	0	1
TAP	21	192	1
TAP	22	0	1
TAP	23	0	0
TAP	23	192	0
TAP	24	0	7
BRK	24	192	7
TAP	25	0	6
TAP	25	192	6
TAP	26	0	6
TAP	27	0	5
TAP	27	192	5
TAP	28	0	5
TAP	29	0	4
TAP	29	192	4
TAP	30	0	4
TAP	31	0	3
TAP	31	192	3
TAP	32	0	4
BRK	32	192	4
STR	33	0	3
SI_	33	0	3	96	480	0
STR	36	0	4
SI_	36	0	4	96	480	7
TAP	39	0	0
TAP	39	0	7
TAP	39	288	0
TAP	39	288	7
TAP	40	192	0
TAP	40	192	1
TAP	41	96	0
TAP	41	96	1
TAP	42	0	0
TAP	42	0	7
TAP	42	288	0
TAP	42	288	7
TAP	43	192	6
TAP	43	192	7
TAP	44	96	6
TAP	44	96	7
STR	45	0	0
SI_	45	0	0	96	288	3
STR	45	0	7
SI_	45	0	7	96	288	4
HLD	47	0	3	192
HLD	48	0	2	192
HLD	48	0	3	192
HLD	49	0	1	192
HLD	50	0	0	192
HLD	50	0	1	192
HLD	51	0	0	192
HLD	52	0	0	192
HLD	52	0	7	192
STR	53	0	7
SI_	53	0	7	96	288	3
HLD	55	0	4	192
HLD	56	0	4	192
HLD	56	0	5	192
HLD	57	0	6	192
HLD	58	0	6	192
HLD	58	0	7	192
HLD	59	0	0	192
HLD	59	0	7	192
HLD	60	0	1	192
HLD	60	0	6	192
HLD	61	0	2	192
HLD	61	0	5	192
BRK	62	0	3
BRK	62	0	4
TAP	63	0	3
TAP	63	96	3
TAP	63	192	2
TAP	63	288	2
TAP	64	0	1
TAP	64	96	1
TAP	64	192	0
TAP	64	288	0
TAP	65	0	7
TAP	65	96	7
TAP	65	192	6
TAP	65	288	6
TAP	66	0	5
TAP	66	96	5
TAP	66	192	4
TAP	66	288	4
HLD	67	0	3	192
TAP	68	0	2
TAP	68	0	4
TAP	68	96	2
TAP	68	96	4
TAP	68	192	2
TAP	68	192	4
HLD	68	288	4	192
TAP	69	288	3
TAP	69	288	5
TAP	70	0	3
TAP	70	0	5
TAP	70	96	3
TAP	70	96	5
TAP	70	192	3
TAP	70	288	3
TAP	71	0	2
TAP	71	96	2
TAP	71	192	1
TAP	71	288	1
TAP	72	0	0
TAP	72	96	0
TAP	72	192	7
TAP	72	288	6
TAP	73	0	5
TAP	73	96	4
TAP	73	192	3
TAP	73	288	2
TAP	74	0	1
STR	74	96	0
SI_	74	96	0	96	288	3
STR	76	96	7
SI_	76	96	7	96	288	4
HLD	78	96	3	192
HLD	78	96	4	192
TAP	79	96	4
TAP	79	192	4
TAP	79	288	3
TAP	79	288	4
TAP	80	0	3
TAP	80	0	4
TAP	80	96	5
TAP	80	192	5
TAP	80	288	4
TAP	80	288	5
TAP	81	0	4
TAP	81	0	5
TAP	81	96	6
TAP	81	192	6
TAP	81	288	5
TAP	81	288	6
TAP	82	0	5
TAP	82	0	6
TAP	82	96	7
TAP	82	192	7
TAP	82	288	0
TAP	82	288	7
TAP	83	0	0
TAP	83	0	7
TAP	83	96	0
TAP	83	192	0
TAP	83	288	0
TAP	83	288	7
TAP	84	0	0
TAP	84	0	7
TAP	84	96	1
TAP	84	192	1
TAP	84	288	0
TAP	84	288	1
TAP	85	0	0
TAP	85	0	1
TAP	85	96	2
TAP	85	192	2
TAP	85	288	2
TAP	85	288	3
TAP	86	0	2
TAP	86	0	3
TAP	86	96	3
TAP	86	192	3
TAP	86	288	3
TAP	86	288	4
TAP	87	0	3
TAP	87	0	4
TAP	87	96	4
TAP	87	144	4
TAP	87	192	4
TAP	87	288	5
TAP	87	336	5
TAP	88	0	5
TAP	88	96	6
TAP	88	144	6
TAP	88	192	6
TAP	88	288	7
TAP	88	336	7
TAP	89	0	7
TAP	89	96	0
TAP	89	144	0
TAP	89	192	0
TAP	89	288	1
TAP	89	336	1
TAP	90	0	1
TAP	90	96	2
TAP	90	144	2
TAP	90	192	2
TAP	90	288	3
TAP	90	336	3
TAP	91	0	3
TAP	91	96	4
TAP	91	144	4
TAP	91	192	4
TAP	91	288	5
TAP	91	336	5
TAP	92	0	5
TAP	92	96	6
TAP	92	144	6
TAP	92	192	6
TAP	92	288	7
TAP	92	336	7
TAP	93	0	7
TAP	93	96	0
TAP	93	144	0
TAP	93	192	0
TAP	93	240	0
TAP	93	288	0
TAP	93	336	0
TAP	94	0	0
TAP	94	96	7
TAP	94	144	7
TAP	94	192	7
TAP	94	240	7
TAP	94	288	7
TAP	94	336	7
TAP	95	0	7
HLD	95	96	0	384
TAP	96	288	0
TAP	96	288	7
HLD	97	96	7	384
TAP	98	288	0
TAP	98	288	7
STR	99	96	0
SI_	99	96	0	96	288	4
TAP	100	288	7
STR	101	96	7
SI_	101	96	7	96	288	3
BRK	102	288	0
TAP	103	96	0
TAP	103	192	0
TAP	103	288	1
TAP	104	0	1
TAP	104	96	2
TAP	104	192	2
TAP	104	288	3
TAP	105	0	3
TAP	105	96	4
TAP	105	192	4
TAP	105	288	3
TAP	105	288	4
TAP	106	0	3
TAP	106	0	4
TAP	106	96	5
TAP	106	192	5
TAP	106	288	4
TAP	106	288	5
TAP	107	0	4
TAP	107	0	5
TAP	107	96	6
TAP	107	144	6
TAP	107	192	6
TAP	107	288	7
TAP	107	336	7
TAP	108	0	7
TAP	108	96	0
TAP	108	144	0
TAP	108	192	0
TAP	108	288	1
TAP	108	336	1
TAP	109	0	1
TAP	109	96	2
TAP	109	144	2
TAP	109	192	2
TAP	109	240	2
TAP	109	288	2
TAP	109	336	2
TAP	110	0	2
TAP	110	96	3
TAP	110	144	3
TAP	110	192	3
TAP	110	240	3
TAP	110	288	3
TAP	110	336	3
TAP	111	0	3
TAP	111	96	4
TAP	111	192	5
TAP	111	288	6
TAP	112	0	7
TAP	112	96	0
TAP	112	192	1
TAP	112	288	2
TAP	113	0	3
HLD	113	96	4	384
TAP	114	96	3
HLD	115	96	3	384
TAP	116	96	4
HLD	117	96	4	840
HLD	118	96	3	456

T_REC_TAP	243
T_REC_BRK	7
T_REC_XTP	0
T_REC_HLD	45
T_REC_XHO	0
T_REC_STR	9
T_REC_BST	0
T_REC_XST	0
T_REC_TTP	0
T_REC_THO	0
T_REC_SLD	9
T_REC_ALL	313
T_NUM_TAP	252
T_NUM_BRK	7
T_NUM_HLD	45
T_NUM_SLD	9
T_NUM_ALL	313
T_JUDGE_TAP	259
T_JUDGE_HLD	212
T_JUDGE_SLD	9
T_JUDGE_ALL	480
TTM_EACHPAIRS	50
TTM_SCR_TAP	126000
TTM_SCR_BRK	18200
TTM_SCR_HLD	45000
TTM_SCR_SLD	13500
TTM_SCR_ALL	202700
TTM_SCR_S	195950
TTM_SCR_SS	202000
TTM_RAT_ACV	10034

