VERSION	0.00.00	1.03.00
FES_MODE	0
BPM_DEF	202.000	202.000	202.000	202.000
MET_DEF	4	4
RESOLUTION	384
CLK_DEF	384
COMPATIBLE_CODE	MA2

BPM	0	0	202.000

HLD	1	0	2	144
HLD	1	144	3	144
HLD	1	288	4	144
HLD	2	48	5	336
STR	3	0	2
SCL	3	0	2	96	480	5
TAP	3	144	5
TAP	3	288	4
TAP	4	48	3
BRK	4	192	7
TAP	5	0	3
TAP	5	144	2
TAP	5	288	1
TAP	6	48	0
TAP	6	192	7
TAP	6	288	0
TAP	7	0	1
TAP	7	0	6
TAP	7	144	2
TAP	7	144	5
TAP	7	288	3
TAP	7	288	4
TAP	8	192	3
TAP	8	216	4
TAP	8	240	2
TAP	8	264	5
TAP	8	288	1
TAP	8	312	6
TAP	8	336	0
TAP	8	360	7
HLD	9	0	1	672
BST	9	0	6
SXL	9	0	6	96	240	3
TAP	10	0	2
TAP	10	144	4
TAP	10	288	6
STR	11	0	1
SXR	11	0	1	96	240	4
HLD	11	0	6	672
TAP	12	0	5
TAP	12	144	3
BST	12	288	1
SI_	12	288	1	96	48	5
TAP	13	0	1
STR	13	0	6
SI_	13	0	6	96	48	0
STR	13	96	2
SI_	13	96	2	96	48	4
TAP	13	96	6
TAP	13	192	2
STR	13	192	5
SI_	13	192	5	96	48	1
STR	13	288	2
SI_	13	288	2	96	48	6
TAP	13	288	5
TAP	14	0	2
STR	14	0	5
SI_	14	0	5	96	48	3
STR	14	96	1
SI_	14	96	1	96	48	7
TAP	14	96	5
TAP	14	192	1
STR	14	192	6
SI_	14	192	6	96	48	2
TAP	14	288	1
TAP	14	288	6
TAP	15	0	0
TAP	15	32	3
TAP	15	64	2
TAP	15	96	7
TAP	15	128	4
TAP	15	160	5
TAP	15	192	1
TAP	15	224	3
TAP	15	256	2
TAP	15	288	6
TAP	15	320	4
TAP	15	352	5
TAP	16	0	2
TAP	16	0	3
TAP	16	48	4
TAP	16	48	5
STR	16	96	0
SXL	16	96	0	96	144	3
STR	16	96	7
SXR	16	96	7	96	144	4
TAP	16	144	1
TAP	16	144	6
BRK	17	0	1
BRK	17	0	6
TAP	17	48	0
TAP	17	72	7
TAP	17	96	0
TAP	17	144	1
TAP	17	144	6
TAP	17	192	0
TAP	17	216	4
TAP	17	240	0
TAP	17	264	4
TAP	17	288	1
TAP	17	312	5
TAP	17	336	1
TAP	17	360	5
TAP	18	0	2
TAP	18	0	6
TAP	18	48	1
TAP	18	72	0
TAP	18	96	1
TAP	18	144	2
TAP	18	144	6
TAP	18	192	7
TAP	18	216	3
TAP	18	240	7
TAP	18	264	3
TAP	18	288	6
TAP	18	312	2
TAP	18	336	6
TAP	18	360	2
TAP	19	0	1
TAP	19	0	5
TAP	19	48	6
TAP	19	72	7
TAP	19	96	6
TAP	19	144	1
TAP	19	144	5
TAP	19	192	2
TAP	19	216	5
TAP	19	240	2
TAP	19	264	5
TAP	19	288	1
TAP	19	312	4
TAP	19	336	1
TAP	19	360	4
TAP	20	0	0
TAP	20	0	3
TAP	20	48	1
TAP	20	48	4
STR	20	96	2
SCL	20	96	2	96	48	7
TAP	20	96	5
TAP	20	144	6
TAP	20	192	2
STR	20	192	7
SF_	20	192	7	96	48	3
TAP	20	208	6
TAP	20	224	5
TAP	20	240	4
TAP	21	0	1
TAP	21	0	5
TAP	21	48	6
TAP	21	72	7
TAP	21	96	6
TAP	21	144	1
TAP	21	144	5
TAP	21	192	0
TAP	21	216	6
TAP	21	240	1
TAP	21	264	5
TAP	21	288	2
TAP	21	312	4
TAP	21	336	3
TAP	21	360	7
TAP	22	0	2
TAP	22	0	6
TAP	22	48	1
TAP	22	72	0
TAP	22	96	1
TAP	22	144	2
TAP	22	144	6
TAP	22	192	7
TAP	22	216	1
TAP	22	240	6
TAP	22	264	2
TAP	22	288	5
TAP	22	312	3
TAP	22	336	4
TAP	22	360	0
TAP	23	0	7
TAP	23	32	7
TAP	23	64	7
TAP	23	96	3
TAP	23	128	3
TAP	23	160	3
TAP	23	192	5
TAP	23	224	5
TAP	23	256	5
TAP	23	288	1
TAP	23	320	1
TAP	23	352	1
TAP	24	0	0
TAP	24	0	4
TAP	24	48	1
TAP	24	48	5
TAP	24	96	2
TAP	24	96	6
TAP	24	144	3
TAP	24	144	7
STR	24	192	0
SI_	24	192	0	96	48	5
STR	24	192	4
SI_	24	192	4	96	48	1
BST	24	288	0
SCR	24	288	0	96	1152	7
HLD	25	0	4	1344
TAP	28	192	0
HLD	28	288	3	48
HLD	28	336	4	48
HLD	29	0	2	96
TAP	29	48	3
HLD	29	96	5	96
TAP	29	144	4
HLD	29	192	1	144
TAP	29	240	2
TAP	29	288	3
HLD	29	336	4	96
HLD	30	48	3	144
TAP	30	96	4
TAP	30	144	5
HLD	30	192	6	96
HLD	30	288	7	96
HLD	31	0	0	144
HLD	31	144	1	144
TAP	31	288	0
TAP	31	312	7
HLD	31	336	6	48
TAP	32	0	0
TAP	32	24	1
HLD	32	48	2	48
TAP	32	96	7
TAP	32	120	6
HLD	32	144	5	48
TAP	32	192	1
TAP	32	216	2
HLD	32	240	3	48
TAP	32	288	4
TAP	32	312	3
TAP	32	336	4
TAP	32	360	3
TAP	33	0	4
TAP	33	48	5
TAP	33	96	2
TAP	33	144	1
TAP	33	192	6
STR	33	240	7
SI_	33	240	7	96	48	3
TAP	33	288	0
TAP	33	336	1
TAP	34	48	2
TAP	34	48	3
TAP	34	96	3
TAP	34	96	4
TAP	34	144	4
TAP	34	144	5
TAP	34	192	6
TAP	34	216	5
TAP	34	240	4
TAP	34	264	3
TAP	34	288	2
TAP	34	312	1
TAP	34	336	0
TAP	34	360	7
TAP	35	0	2
TAP	35	0	6
TAP	35	24	3
TAP	35	48	4
TAP	35	72	5
TAP	35	96	6
TAP	35	120	7
TAP	35	144	0
TAP	35	168	1
TAP	35	192	2
TAP	35	192	5
TAP	35	216	4
TAP	35	240	3
TAP	35	264	2
TAP	35	288	1
TAP	35	312	0
TAP	35	336	7
TAP	35	360	6
TAP	36	0	1
TAP	36	0	5
TAP	36	24	2
TAP	36	48	3
TAP	36	72	4
TAP	36	96	5
TAP	36	120	6
TAP	36	144	7
TAP	36	168	0
TAP	36	192	1
TAP	36	216	6
TAP	36	240	0
TAP	36	264	7
TAP	36	288	1
TAP	36	312	6
HLD	36	336	0	96
TAP	37	48	7
TAP	37	96	6
STR	37	144	5
SCR	37	144	5	96	48	0
TAP	37	192	5
TAP	37	240	1
TAP	37	256	2
TAP	37	272	3
TAP	37	288	4
HLD	37	336	7	96
TAP	38	48	0
TAP	38	96	1
STR	38	144	2
SCL	38	144	2	96	48	7
TAP	38	192	2
TAP	38	240	6
TAP	38	256	5
TAP	38	272	4
TAP	38	288	3
BRK	38	336	0
TAP	39	48	0
TAP	39	72	3
TAP	39	96	0
TAP	39	120	3
TAP	39	144	0
TAP	39	168	3
TAP	39	192	1
TAP	39	192	4
TAP	39	240	2
TAP	39	240	5
TAP	39	288	3
TAP	39	288	6
TAP	39	336	4
TAP	39	336	7
TAP	40	48	7
TAP	40	72	4
TAP	40	96	7
TAP	40	120	4
TAP	40	144	7
TAP	40	168	4
TAP	40	192	3
TAP	40	192	6
TAP	40	240	2
TAP	40	240	5
TAP	40	288	1
TAP	40	288	4
TAP	40	336	0
TAP	40	336	3
TAP	41	48	0
TAP	41	72	3
TAP	41	96	0
TAP	41	120	3
TAP	41	144	0
TAP	41	168	3
TAP	41	192	1
TAP	41	192	4
TAP	41	240	2
TAP	41	240	5
TAP	41	288	3
TAP	41	288	6
TAP	41	336	0
TAP	41	336	7
STR	42	48	2
SCR	42	48	2	96	48	5
TAP	42	96	5
TAP	42	144	2
TAP	42	192	6
TAP	42	208	7
TAP	42	224	0
TAP	42	240	1
TAP	42	288	3
TAP	42	288	4
TAP	42	336	1
TAP	42	336	6
TAP	43	48	6
TAP	43	72	5
TAP	43	96	6
TAP	43	120	5
TAP	43	144	6
TAP	43	168	5
TAP	43	192	4
TAP	43	192	7
TAP	43	240	3
TAP	43	240	6
TAP	43	288	2
TAP	43	288	5
TAP	43	336	0
TAP	43	336	7
TAP	44	48	1
TAP	44	72	2
TAP	44	96	1
TAP	44	120	2
TAP	44	144	1
TAP	44	168	2
TAP	44	192	0
TAP	44	192	3
TAP	44	240	1
TAP	44	240	4
TAP	44	288	2
TAP	44	288	5
TAP	44	336	0
TAP	44	336	7
TAP	45	48	6
TAP	45	72	5
TAP	45	96	6
TAP	45	120	5
TAP	45	144	6
TAP	45	168	5
TAP	45	192	4
TAP	45	192	7
TAP	45	240	3
TAP	45	240	6
TAP	45	288	2
TAP	45	288	5
STR	45	336	0
SI_	45	336	0	96	336	4
TAP	45	336	7
TAP	46	48	1
TAP	46	120	7
TAP	46	192	2
TAP	46	264	6
TAP	46	336	3
BRK	47	0	5
HLD	48	0	0	0
HLD	49	0	1	0
TAP	49	4	6
HLD	50	0	2	0
TAP	50	4	5
TAP	50	192	4
HLD	51	0	3	0
BRK	51	4	4
HLD	52	0	4	0
TAP	52	4	3
TAP	52	192	3
HLD	53	0	5	0
TAP	53	4	2
STR	54	0	1
SXR	54	0	1	96	240	6
HLD	54	0	6	0
HLD	55	0	5	336
TAP	55	96	4
TAP	55	192	4
TAP	55	288	4
TAP	55	336	0
TAP	55	360	1
HLD	56	0	2	192
TAP	56	96	3
HLD	56	192	5	144
TAP	56	288	4
TAP	56	336	0
TAP	56	360	1
HLD	57	0	2	144
TAP	57	96	3
TAP	57	144	7
TAP	57	168	6
HLD	57	192	5	144
TAP	57	288	4
TAP	57	336	0
TAP	57	360	1
HLD	58	0	2	96
TAP	58	48	3
HLD	58	96	5	96
TAP	58	144	4
HLD	58	192	1	96
TAP	58	240	2
HLD	58	288	6	96
TAP	58	336	5
HLD	59	0	0	192
TAP	59	48	1
TAP	59	96	1
TAP	59	144	1
HLD	59	192	7	192
TAP	59	240	6
TAP	59	288	6
TAP	59	336	6
TAP	60	0	2
TAP	60	24	3
TAP	60	48	2
TAP	60	96	5
TAP	60	120	4
TAP	60	144	5
TAP	60	192	1
TAP	60	216	3
TAP	60	240	2
TAP	60	288	6
TAP	60	312	4
TAP	60	336	5
TAP	61	0	0
TAP	61	24	3
TAP	61	48	2
TAP	61	96	7
TAP	61	120	4
TAP	61	144	5
TAP	61	192	0
TAP	61	216	2
TAP	61	240	1
TAP	61	288	7
TAP	61	312	5
TAP	61	336	6
TAP	62	0	1
TAP	62	0	3
TAP	62	48	2
TAP	62	96	4
TAP	62	96	6
TAP	62	144	5
STR	62	192	0
SI_	62	192	0	96	48	3
STR	62	192	7
SI_	62	192	7	96	48	4
TAP	62	240	1
TAP	62	240	6
HLD	63	0	2	96
TAP	63	0	3
TAP	63	24	4
TAP	63	48	5
TAP	63	72	6
TAP	63	96	7
TAP	63	144	0
HLD	63	144	7	96
TAP	63	168	1
TAP	63	192	2
TAP	63	216	3
TAP	63	240	4
TAP	63	288	4
HLD	63	288	5	96
TAP	63	312	3
TAP	63	336	2
TAP	63	360	1
TAP	64	0	0
HLD	64	48	0	96
TAP	64	48	7
TAP	64	72	6
TAP	64	96	5
TAP	64	120	4
TAP	64	144	3
STR	64	192	2
SCL	64	192	2	96	48	7
STR	64	192	3
SV_	64	192	3	96	48	6
TAP	65	0	4
HLD	65	0	5	96
TAP	65	24	3
TAP	65	48	2
TAP	65	72	1
TAP	65	96	0
HLD	65	144	0	96
TAP	65	144	7
TAP	65	168	6
TAP	65	192	5
TAP	65	216	4
TAP	65	240	3
HLD	65	288	2	96
TAP	65	288	3
TAP	65	312	4
TAP	65	336	5
TAP	65	360	6
TAP	66	0	7
TAP	66	48	0
HLD	66	48	7	96
TAP	66	72	1
TAP	66	96	2
TAP	66	120	3
TAP	66	144	4
STR	66	192	4
SUR	66	192	4	96	48	0
STR	66	192	5
SUL	66	192	5	96	48	1
HLD	67	0	0	96
BRK	67	0	7
TAP	67	24	6
TAP	67	48	5
TAP	67	72	4
TAP	67	96	3
TAP	67	144	2
HLD	67	144	3	96
TAP	67	168	1
TAP	67	192	0
TAP	67	216	7
TAP	67	240	6
HLD	67	288	5	96
TAP	67	288	6
TAP	67	312	7
TAP	67	336	0
TAP	67	360	1
TAP	68	0	2
HLD	68	48	2	96
TAP	68	48	3
TAP	68	72	4
TAP	68	96	5
TAP	68	120	6
TAP	68	144	7
STR	68	192	0
SCL	68	192	0	96	48	5
STR	68	192	7
SCR	68	192	7	96	48	2
TAP	69	0	0
HLD	69	0	7	96
TAP	69	24	1
TAP	69	48	2
TAP	69	72	3
TAP	69	96	4
HLD	69	144	4	96
TAP	69	144	5
TAP	69	168	6
TAP	69	192	7
TAP	69	216	0
TAP	69	240	1
TAP	69	288	1
HLD	69	288	2	96
TAP	69	312	0
TAP	69	336	7
TAP	69	360	6
TAP	70	0	5
TAP	70	48	3
TAP	70	48	4
TAP	70	96	2
TAP	70	144	3
TAP	70	144	4
STR	70	192	5
SV_	70	192	5	96	48	6
STR	70	240	1
SV_	70	240	1	96	48	2
STR	71	0	4
SI_	71	0	4	96	48	1
STR	71	144	0
SSL	71	144	0	96	96	4
STR	72	0	7
SI_	72	0	7	96	48	2
STR	72	144	3
SSR	72	144	3	96	96	7
STR	73	0	4
SI_	73	0	4	96	48	0
STR	73	144	2
SSL	73	144	2	96	96	6
STR	74	0	7
SI_	74	0	7	96	48	3
TAP	74	144	4
BRK	74	192	0
BRK	74	192	7
BRK	74	216	0
BRK	74	216	7
BRK	74	240	1
BRK	74	240	6
TAP	75	0	3
STR	75	0	7
SI_	75	0	7	96	48	4
TAP	75	64	0
TAP	75	128	1
STR	75	192	2
SI_	75	192	2	96	48	7
TAP	75	192	6
TAP	75	256	3
TAP	75	320	4
TAP	76	0	1
STR	76	0	5
SI_	76	0	5	96	48	2
TAP	76	64	6
TAP	76	128	7
STR	76	192	0
SI_	76	192	0	96	48	5
TAP	76	192	4
TAP	76	256	1
TAP	76	320	2
TAP	77	0	3
TAP	77	0	4
TAP	77	48	5
TAP	77	96	3
TAP	77	96	4
TAP	77	144	2
TAP	77	192	3
TAP	77	192	4
TAP	77	240	6
TAP	77	288	3
TAP	77	288	4
TAP	77	336	1
TAP	78	0	3
TAP	78	0	4
TAP	78	48	1
TAP	78	48	5
TAP	78	96	3
TAP	78	96	4
TAP	78	144	2
TAP	78	144	6
TAP	78	192	1
TAP	78	216	5
TAP	78	240	1
TAP	78	264	5
TAP	78	288	0
STR	78	288	4
SI_	78	288	4	96	384	0
TAP	78	312	1
TAP	78	312	5
TAP	78	336	2
TAP	78	336	6
TAP	78	360	3
TAP	78	360	7
BRK	79	0	0
BRK	79	0	4
STR	80	0	4
SF_	80	0	4	96	48	0
TAP	80	192	2
TAP	80	192	3
TAP	80	240	4
TAP	80	240	5
TAP	80	288	3
TAP	80	300	2
TAP	80	312	1
TAP	80	324	0
TAP	80	336	7
TAP	80	348	6
TAP	80	360	5
TAP	80	372	4
BRK	81	0	3
BST	81	0	7
SI_	81	0	7	96	48	3
TAP	81	48	7
TAP	81	96	1
TAP	81	144	1
TAP	81	192	3
TAP	81	216	2
TAP	81	240	1
TAP	81	264	0
TAP	81	288	6
TAP	81	312	5
TAP	81	336	4
TAP	81	360	3
STR	82	0	0
SI_	82	0	0	96	48	4
TAP	82	48	0
TAP	82	96	6
TAP	82	144	6
TAP	82	192	4
TAP	82	216	5
TAP	82	240	6
TAP	82	264	7
TAP	82	288	1
TAP	82	312	2
TAP	82	336	3
TAP	82	360	4
STR	83	0	6
SCL	83	0	6	96	48	3
TAP	83	48	6
TAP	83	96	2
TAP	83	144	2
HLD	83	192	0	72
STR	83	192	1
SI_	83	192	1	96	48	4
TAP	83	264	1
TAP	83	288	0
TAP	83	336	5
STR	84	0	6
SI_	84	0	6	96	48	3
HLD	84	0	7	72
TAP	84	72	6
TAP	84	96	7
TAP	84	144	2
STR	84	192	1
SI_	84	192	1	96	48	3
STR	84	192	4
SI_	84	192	4	96	48	0
BRK	84	288	1
BRK	84	288	4
STR	85	0	6
SCL	85	0	6	96	48	3
TAP	85	48	6
TAP	85	96	2
TAP	85	144	2
HLD	85	192	0	72
STR	85	192	1
SI_	85	192	1	96	48	4
TAP	85	264	1
TAP	85	288	0
TAP	85	336	5
TAP	86	0	3
BST	86	0	6
SI_	86	0	6	96	48	3
TAP	86	48	2
TAP	86	96	1
TAP	86	144	0
BRK	86	192	3
STR	86	192	7
SI_	86	192	7	96	48	2
TAP	86	240	4
BRK	86	288	5
TAP	86	336	6
TAP	87	48	0
TAP	87	48	7
BST	87	96	0
SI_	87	96	0	96	48	4
BST	87	96	7
SI_	87	96	7	96	48	3
TAP	87	144	1
TAP	87	144	6
BRK	87	192	0
BRK	87	192	7
TAP	87	264	2
TAP	87	264	5
TAP	87	336	0
TAP	87	336	7
BRK	88	0	1
BRK	88	0	6
BRK	88	48	1
BRK	88	48	6
BRK	88	96	1
BRK	88	96	6
BST	88	144	1
SSR	88	144	1	96	96	5
BST	88	144	6
SSL	88	144	6	96	96	2
BRK	88	192	1
BRK	88	192	6
TAP	88	352	4
TAP	88	368	3
STR	89	0	4
SCR	89	0	4	96	240	3
TAP	90	0	0
TAP	90	32	0
TAP	90	64	0
TAP	90	96	3
TAP	90	120	4
TAP	90	144	5
TAP	90	168	6
TAP	90	192	2
TAP	90	224	2
TAP	90	256	2
TAP	90	288	4
TAP	90	312	5
TAP	90	336	6
TAP	90	360	7
TAP	91	0	1
TAP	91	24	2
TAP	91	48	3
TAP	91	72	4
TAP	91	96	5
TAP	91	120	6
TAP	91	144	7
TAP	91	168	0
TAP	91	192	5
TAP	91	224	5
TAP	91	256	5
TAP	91	288	2
TAP	91	312	1
TAP	91	336	0
TAP	91	360	7
TAP	92	0	6
TAP	92	24	5
TAP	92	48	4
TAP	92	72	3
TAP	92	96	2
TAP	92	96	6
TAP	92	120	1
TAP	92	120	5
TAP	92	144	0
TAP	92	144	4
TAP	92	168	3
TAP	92	168	7
BST	92	192	2
SI_	92	192	2	96	24	5
BST	92	192	6
SI_	92	192	6	96	24	1
BRK	92	264	2
BRK	92	264	6
BST	92	336	0
SSL	92	336	0	96	72	4
BRK	92	336	4
BRK	93	96	7
TAP	93	192	3
TAP	93	224	3
TAP	93	256	3
TAP	93	288	6
TAP	93	312	5
TAP	93	336	4
TAP	93	360	3
TAP	94	0	0
TAP	94	32	0
TAP	94	64	0
TAP	94	96	3
TAP	94	120	4
TAP	94	144	5
TAP	94	168	6
TAP	94	192	0
TAP	94	216	1
TAP	94	240	2
TAP	94	264	3
TAP	94	288	0
TAP	94	312	7
TAP	94	336	6
TAP	94	360	5
TAP	95	0	2
TAP	95	24	3
TAP	95	48	2
TAP	95	72	3
TAP	95	96	0
TAP	95	120	7
TAP	95	144	0
TAP	95	168	7
TAP	95	192	4
TAP	95	216	5
TAP	95	240	4
TAP	95	264	5
TAP	95	288	0
TAP	95	312	7
TAP	95	336	0
TAP	95	360	7
TAP	96	0	1
TAP	96	0	6
TAP	96	48	2
TAP	96	48	5
STR	96	96	3
SI_	96	96	3	96	48	7
STR	96	96	4
SI_	96	96	4	96	48	0
TAP	96	144	2
TAP	96	144	5
TAP	96	192	3
TAP	96	192	4
BRK	96	288	0
BRK	96	288	7
TAP	96	304	1
TAP	96	304	6
TAP	96	320	2
TAP	96	320	5
TAP	96	336	3
TAP	96	336	4
TAP	97	0	1
HLD	97	0	6	144
TAP	97	48	2
TAP	97	96	3
HLD	97	144	4	144
TAP	97	192	6
TAP	97	240	7
HLD	97	288	0	144
TAP	97	336	4
TAP	98	0	3
HLD	98	48	2	144
TAP	98	96	0
TAP	98	144	7
HLD	98	192	6	96
TAP	98	240	5
HLD	98	288	1	96
TAP	98	336	2
HLD	99	0	5	144
TAP	99	48	1
TAP	99	96	0
HLD	99	144	7	144
TAP	99	192	5
TAP	99	240	4
HLD	99	288	3	144
TAP	99	336	7
TAP	100	0	0
HLD	100	48	1	144
TAP	100	96	3
TAP	100	144	4
TAP	100	192	5
TAP	100	240	2
TAP	100	240	6
TAP	100	288	3
TAP	100	312	7
TAP	100	336	3
TAP	100	360	7
STR	101	0	2
SXR	101	0	2	96	96	3
STR	101	0	6
SXR	101	0	6	96	96	7
BRK	101	96	2
BRK	101	96	6
TAP	101	288	3
HLD	101	288	7	144
TAP	101	336	2
TAP	102	0	1
HLD	102	48	0	144
TAP	102	96	7
TAP	102	144	6
TAP	102	192	5
TAP	102	240	0
TAP	102	240	4
TAP	102	288	1
TAP	102	288	5
TAP	102	336	2
TAP	102	336	6
HLD	103	0	7	0
TAP	103	4	3
HLD	103	192	0	0
TAP	103	196	4
BRK	104	0	3
TAP	104	0	7
BRK	104	48	2
TAP	104	48	6
BRK	104	96	1
TAP	104	96	5
BRK	104	144	0
HLD	104	144	4	144
TAP	104	240	1
TAP	104	256	0
TAP	104	272	7
TAP	104	288	6
TAP	104	304	5
TAP	104	320	4
TAP	104	336	3
TAP	104	352	2
TAP	104	352	5
TAP	104	368	1
TAP	104	368	6
STR	105	0	0
SSL	105	0	0	96	48	4
STR	105	0	7
SSR	105	0	7	96	48	3
BRK	105	96	0
BRK	105	96	7
TAP	105	192	2
TAP	105	216	3
TAP	105	240	1
TAP	105	264	4
TAP	105	288	0
TAP	105	312	5
TAP	105	336	7
TAP	105	360	6
TAP	106	0	0
TAP	106	48	5
TAP	106	72	4
TAP	106	72	6
TAP	106	120	2
TAP	106	144	1
TAP	106	144	3
TAP	106	192	5
TAP	106	216	4
TAP	106	240	6
TAP	106	264	3
TAP	106	288	7
TAP	106	312	2
TAP	106	336	0
TAP	106	360	1
TAP	107	0	7
TAP	107	48	2
TAP	107	72	1
TAP	107	72	3
TAP	107	120	5
TAP	107	144	4
TAP	107	144	6
STR	107	192	7
SI_	107	192	7	96	48	3
STR	107	240	1
SI_	107	240	1	96	48	5
TAP	107	288	7
TAP	107	336	1
HLD	108	0	0	48
HLD	108	72	1	48
HLD	108	72	7	48
TAP	108	144	2
TAP	108	144	6
TAP	108	192	0
TAP	108	216	7
TAP	108	240	1
TAP	108	264	6
TAP	108	288	2
TAP	108	312	5
TAP	108	336	3
TAP	108	360	4
BRK	109	0	2
TAP	109	32	2
TAP	109	64	2
TAP	109	96	1
TAP	109	128	1
TAP	109	160	1
BRK	109	192	0
TAP	109	224	0
TAP	109	256	0
TAP	109	288	7
TAP	109	320	7
TAP	109	352	7
BRK	110	0	6
TAP	110	32	6
TAP	110	64	6
TAP	110	96	5
TAP	110	128	5
TAP	110	160	5
BRK	110	192	3
TAP	110	216	4
TAP	110	240	2
TAP	110	264	5
TAP	110	288	1
TAP	110	312	6
TAP	110	336	0
TAP	110	360	7
BRK	111	0	1
BRK	111	0	6
TAP	111	48	3
TAP	111	64	4
TAP	111	80	2
TAP	111	96	3
TAP	111	144	1
TAP	111	144	4
STR	111	192	0
SI_	111	192	0	96	48	2
TAP	111	240	0
STR	111	288	7
SI_	111	288	7	96	48	3
TAP	111	336	7
STR	112	0	0
SI_	112	0	0	96	48	4
TAP	112	48	0
STR	112	96	7
SI_	112	96	7	96	48	5
TAP	112	144	7
TAP	112	192	0
TAP	112	240	3
TAP	112	264	4
TAP	112	288	2
TAP	112	312	5
TAP	112	336	1
TAP	112	360	6
TAP	113	0	0
TAP	113	0	7
TAP	113	48	1
TAP	113	48	6
TAP	113	96	4
TAP	113	112	3
TAP	113	128	5
TAP	113	144	4
TAP	113	192	3
STR	113	192	6
SI_	113	192	6	96	48	2
TAP	113	240	6
STR	113	288	1
SI_	113	288	1	96	48	5
TAP	113	336	1
STR	114	0	7
SI_	114	0	7	96	48	3
TAP	114	48	7
TAP	114	96	0
TAP	114	144	0
TAP	114	192	1
TAP	114	192	5
TAP	114	216	2
TAP	114	216	6
TAP	114	240	3
TAP	114	240	7
TAP	114	264	0
TAP	114	264	4
TAP	114	288	1
TAP	114	304	2
TAP	114	320	3
TAP	114	336	4
TAP	114	352	5
TAP	114	368	6
BRK	115	0	0
BRK	115	0	7
STR	115	192	0
SI_	115	192	0	96	48	4
TAP	115	216	6
TAP	115	240	2
TAP	115	264	4
BRK	115	288	0
TAP	116	0	3
TAP	116	0	5
TAP	116	48	1
TAP	116	48	4
TAP	116	96	2
TAP	116	96	6
TAP	116	144	0
TAP	116	144	5
BRK	116	192	3
BRK	116	192	7
TAP	116	208	2
TAP	116	224	1
BRK	116	240	0
TAP	116	256	7
TAP	116	272	6
BRK	116	288	2
BRK	116	288	5
TAP	116	304	1
TAP	116	320	0
BRK	116	336	7
TAP	116	352	6
TAP	116	368	5
BRK	117	0	0
BRK	117	0	4
BRK	121	0	0

T_REC_TAP	869
T_REC_BRK	62
T_REC_XTP	0
T_REC_HLD	78
T_REC_XHO	0
T_REC_STR	70
T_REC_BST	12
T_REC_XST	0
T_REC_TTP	0
T_REC_THO	0
T_REC_SLD	82
T_REC_ALL	1173
T_NUM_TAP	939
T_NUM_BRK	74
T_NUM_HLD	78
T_NUM_SLD	82
T_NUM_ALL	1173
T_JUDGE_TAP	1013
T_JUDGE_HLD	225
T_JUDGE_SLD	82
T_JUDGE_ALL	1320
TTM_EACHPAIRS	189
TTM_SCR_TAP	469500
TTM_SCR_BRK	192400
TTM_SCR_HLD	78000
TTM_SCR_SLD	123000
TTM_SCR_ALL	862900
TTM_SCR_S	829850
TTM_SCR_SS	855500
TTM_RAT_ACV	10086

