VERSION	0.00.00	1.03.00
FES_MODE	0
BPM_DEF	202.000	202.000	202.000	202.000
MET_DEF	4	4
RESOLUTION	384
CLK_DEF	384
COMPATIBLE_CODE	MA2

BPM	0	0	202.000

HLD	1	0	2	144
HLD	1	144	3	144
HLD	1	288	4	144
TAP	2	48	5
HLD	3	0	5	144
HLD	3	144	4	144
HLD	3	288	3	144
TAP	4	48	2
TAP	4	192	1
TAP	4	192	6
HLD	5	0	1	144
HLD	5	144	3	144
HLD	5	288	4	144
TAP	6	48	6
TAP	6	192	0
TAP	6	192	7
TAP	6	288	1
TAP	6	288	6
TAP	7	0	2
HLD	7	0	5	144
HLD	7	144	3	144
HLD	7	288	1	144
STR	8	48	7
SF_	8	48	7	96	144	3
TAP	9	0	0
TAP	9	0	1
TAP	9	96	2
TAP	9	96	7
TAP	9	192	6
TAP	9	240	6
TAP	9	288	0
TAP	9	336	0
TAP	10	0	4
TAP	10	96	2
TAP	10	144	3
TAP	10	192	2
TAP	10	288	4
TAP	10	288	5
TAP	11	0	6
TAP	11	0	7
TAP	11	96	0
TAP	11	96	5
TAP	11	192	1
TAP	11	240	1
TAP	11	288	7
TAP	11	336	7
TAP	12	0	3
TAP	12	96	5
TAP	12	144	4
TAP	12	192	5
TAP	12	288	2
TAP	12	288	3
TAP	13	0	0
TAP	13	0	1
TAP	13	96	2
TAP	13	96	7
TAP	13	192	5
TAP	13	240	5
TAP	13	288	7
TAP	13	336	7
TAP	14	0	3
TAP	14	96	1
TAP	14	144	3
TAP	14	192	1
TAP	14	288	3
TAP	14	288	5
STR	15	0	1
SI_	15	0	1	96	48	4
TAP	15	0	7
STR	15	96	6
SI_	15	96	6	96	48	3
STR	15	192	0
SI_	15	192	0	96	48	4
TAP	15	288	6
TAP	16	0	3
TAP	16	0	7
TAP	16	48	3
TAP	16	48	7
TAP	16	96	2
TAP	16	96	6
TAP	16	144	2
TAP	16	144	6
BST	16	192	1
SI_	16	192	1	96	48	4
TAP	16	192	5
TAP	17	0	0
TAP	17	0	6
TAP	17	96	1
TAP	17	144	2
TAP	17	144	3
TAP	17	240	6
TAP	17	288	4
TAP	17	288	5
TAP	18	0	0
TAP	18	48	2
TAP	18	48	3
TAP	18	144	7
STR	18	192	4
SI_	18	192	4	96	48	0
TAP	18	192	5
TAP	19	0	1
TAP	19	0	7
TAP	19	96	6
TAP	19	144	4
TAP	19	144	5
TAP	19	240	1
TAP	19	288	2
TAP	19	288	3
TAP	20	0	7
TAP	20	48	4
TAP	20	48	5
TAP	20	144	0
TAP	20	192	2
STR	20	192	3
SI_	20	192	3	96	48	7
TAP	21	0	0
TAP	21	48	1
TAP	21	96	2
TAP	21	144	7
TAP	21	192	6
TAP	21	240	5
TAP	21	288	1
TAP	21	336	2
TAP	22	0	3
TAP	22	48	6
TAP	22	96	5
TAP	22	144	4
HLD	22	192	2	96
TAP	22	288	1
STR	23	0	0
SI_	23	0	0	96	48	4
TAP	23	96	5
STR	23	192	7
SI_	23	192	7	96	48	3
TAP	23	288	2
TAP	24	0	0
TAP	24	0	4
TAP	24	48	0
TAP	24	48	4
TAP	24	96	1
TAP	24	96	5
TAP	24	144	1
TAP	24	144	5
TAP	24	192	2
BST	24	192	6
SI_	24	192	6	96	48	3
STR	25	0	1
SXL	25	0	1	96	576	4
TAP	26	0	5
TAP	26	192	5
STR	27	0	6
SXR	27	0	6	96	576	3
TAP	28	0	2
TAP	28	192	2
HLD	29	0	1	144
HLD	29	144	3	144
TAP	29	288	4
HLD	30	0	6	144
HLD	30	144	4	144
TAP	30	288	3
HLD	31	0	2	144
STR	31	144	1
SCL	31	144	1	96	336	4
TAP	32	288	3
TAP	32	288	4
TAP	33	0	0
STR	33	0	1
SCR	33	0	1	96	48	4
TAP	33	96	7
TAP	33	192	6
TAP	33	240	6
TAP	33	336	3
TAP	33	336	5
TAP	34	48	2
TAP	34	48	4
TAP	34	96	2
TAP	34	96	4
TAP	34	192	1
TAP	34	192	3
TAP	34	288	4
TAP	34	288	6
STR	35	0	6
SCL	35	0	6	96	48	3
TAP	35	0	7
TAP	35	96	0
TAP	35	192	1
TAP	35	240	1
TAP	35	336	2
TAP	35	336	4
TAP	36	48	3
TAP	36	48	5
TAP	36	96	3
TAP	36	96	5
TAP	36	192	4
TAP	36	192	6
TAP	36	288	1
TAP	36	288	3
TAP	36	336	1
TAP	36	336	3
TAP	37	48	6
TAP	37	48	7
TAP	37	96	6
TAP	37	96	7
TAP	37	192	5
TAP	37	240	4
TAP	37	288	3
TAP	37	336	2
TAP	38	48	0
TAP	38	48	1
TAP	38	96	0
TAP	38	96	1
TAP	38	192	2
TAP	38	240	3
TAP	38	288	4
TAP	38	336	5
TAP	39	48	6
TAP	39	96	6
TAP	39	144	0
TAP	39	192	0
TAP	39	240	1
TAP	39	240	5
TAP	39	288	1
TAP	39	288	5
TAP	39	336	2
TAP	39	336	4
TAP	40	48	1
TAP	40	96	1
TAP	40	144	7
TAP	40	192	7
TAP	40	240	2
TAP	40	240	6
TAP	40	288	2
TAP	40	288	6
TAP	40	336	3
TAP	40	336	5
TAP	41	48	6
TAP	41	96	6
TAP	41	144	0
TAP	41	192	0
TAP	41	240	1
TAP	41	240	5
TAP	41	288	1
TAP	41	288	5
TAP	41	336	2
STR	41	336	4
SI_	41	336	4	96	48	0
TAP	42	48	3
STR	42	144	3
SI_	42	144	3	96	48	7
TAP	42	240	4
BRK	42	336	1
BRK	42	336	6
TAP	43	48	5
TAP	43	96	5
TAP	43	144	3
TAP	43	192	3
TAP	43	240	2
TAP	43	240	6
TAP	43	288	2
TAP	43	288	6
TAP	43	336	1
TAP	43	336	7
TAP	44	48	2
TAP	44	96	2
TAP	44	144	4
TAP	44	192	4
TAP	44	240	1
TAP	44	240	5
TAP	44	288	1
TAP	44	288	5
TAP	44	336	0
TAP	44	336	6
TAP	45	48	5
TAP	45	96	5
TAP	45	144	3
TAP	45	192	3
TAP	45	240	2
TAP	45	240	6
TAP	45	288	2
TAP	45	288	6
TAP	45	336	1
BST	45	336	7
SXL	45	336	7	96	240	2
SXR	45	336	7	96	240	4
HLD	47	0	0	2688
TAP	48	0	1
TAP	49	0	2
TAP	50	0	3
TAP	51	0	4
TAP	52	0	5
TAP	53	0	6
STR	54	0	7
SF_	54	0	7	96	192	3
TAP	55	0	3
HLD	55	0	4	768
TAP	55	96	2
TAP	55	192	1
TAP	55	288	0
TAP	56	0	7
TAP	56	96	0
TAP	56	192	1
TAP	56	288	2
HLD	57	0	3	672
TAP	57	96	5
TAP	57	192	6
TAP	57	288	7
TAP	58	0	0
TAP	58	96	7
TAP	58	192	6
TAP	58	288	5
TAP	59	0	4
TAP	59	48	4
TAP	59	96	3
TAP	59	144	3
TAP	59	192	2
TAP	59	240	2
TAP	59	288	1
TAP	59	336	1
TAP	60	0	0
TAP	60	48	0
TAP	60	96	7
TAP	60	144	7
TAP	60	192	6
TAP	60	240	6
TAP	60	288	5
TAP	60	336	5
TAP	61	0	4
TAP	61	48	3
TAP	61	96	2
TAP	61	144	1
TAP	61	192	0
TAP	61	240	7
TAP	61	288	6
TAP	61	336	5
TAP	62	0	4
TAP	62	24	3
TAP	62	48	2
TAP	62	72	1
TAP	62	96	0
TAP	62	120	7
TAP	62	144	6
TAP	62	168	5
TAP	62	192	4
BRK	62	288	1
BRK	62	288	6
TAP	63	0	6
TAP	63	0	7
TAP	63	96	2
TAP	63	144	2
TAP	63	144	3
TAP	63	240	5
TAP	63	288	4
TAP	63	288	5
TAP	64	0	1
TAP	64	48	1
TAP	64	48	3
TAP	64	144	6
TAP	64	192	4
TAP	64	192	6
TAP	64	288	1
TAP	64	288	3
TAP	65	0	0
TAP	65	0	1
TAP	65	96	5
TAP	65	144	4
TAP	65	144	5
TAP	65	240	2
TAP	65	288	2
TAP	65	288	3
TAP	66	0	6
TAP	66	48	4
TAP	66	48	6
TAP	66	144	1
TAP	66	192	1
TAP	66	192	3
TAP	66	288	4
TAP	66	288	6
TAP	67	0	2
TAP	67	0	3
TAP	67	96	6
TAP	67	144	6
TAP	67	144	7
TAP	67	240	1
TAP	67	288	0
TAP	67	288	1
TAP	68	0	5
TAP	68	48	5
TAP	68	48	7
TAP	68	144	2
TAP	68	192	0
TAP	68	192	2
TAP	68	288	5
TAP	68	288	7
TAP	69	0	4
TAP	69	0	5
TAP	69	96	1
TAP	69	144	0
TAP	69	144	1
TAP	69	240	6
STR	69	288	6
SXR	69	288	6	96	288	3
STR	69	288	7
SXL	69	288	7	96	288	2
HLD	71	0	1	96
HLD	71	0	4	96
TAP	71	144	1
TAP	71	144	4
HLD	72	0	3	96
HLD	72	0	6	96
TAP	72	144	3
TAP	72	144	6
HLD	73	0	0	96
HLD	73	0	4	96
TAP	73	144	0
TAP	73	144	4
HLD	74	0	3	96
HLD	74	0	7	96
TAP	74	144	3
TAP	74	144	7
STR	75	0	1
SI_	75	0	1	96	48	4
STR	75	192	6
SI_	75	192	6	96	48	3
STR	76	0	1
SI_	76	0	1	96	48	5
STR	76	192	6
SI_	76	192	6	96	48	2
STR	77	0	0
SI_	77	0	0	96	48	4
TAP	77	96	5
STR	77	192	7
SI_	77	192	7	96	48	3
TAP	77	288	2
TAP	78	0	1
TAP	78	48	1
TAP	78	96	6
TAP	78	144	6
TAP	78	192	0
TAP	78	216	7
TAP	78	240	0
TAP	78	264	7
TAP	78	288	0
TAP	78	312	7
TAP	78	336	0
TAP	78	360	7
BRK	79	0	1
BRK	79	0	6
TAP	80	192	4
TAP	80	240	3
BRK	80	288	1
BRK	80	288	6
STR	81	0	2
SI_	81	0	2	96	48	7
TAP	81	0	3
TAP	81	96	5
TAP	81	144	5
TAP	81	192	6
TAP	81	240	7
TAP	81	288	0
TAP	81	288	5
TAP	82	0	4
STR	82	0	5
SI_	82	0	5	96	48	0
TAP	82	96	2
TAP	82	144	2
TAP	82	192	1
TAP	82	240	0
TAP	82	288	2
TAP	82	288	7
TAP	83	0	2
STR	83	0	3
SI_	83	0	3	96	48	7
TAP	83	96	0
TAP	83	144	0
HLD	83	192	1	72
HLD	83	264	3	72
TAP	83	336	4
HLD	84	0	6	72
HLD	84	72	4	72
TAP	84	144	3
STR	84	192	1
SI_	84	192	1	96	48	5
TAP	84	288	0
STR	85	0	6
SI_	85	0	6	96	48	2
TAP	85	96	7
TAP	85	144	7
TAP	85	192	0
TAP	85	240	1
TAP	85	288	2
TAP	85	288	5
STR	86	0	1
SI_	86	0	1	96	48	5
TAP	86	0	7
TAP	86	96	0
TAP	86	144	0
TAP	86	192	7
TAP	86	240	6
TAP	86	288	2
TAP	86	288	5
HLD	87	0	1	96
HLD	87	96	3	96
HLD	87	192	4	96
TAP	87	288	6
TAP	88	0	6
TAP	88	0	7
TAP	88	48	6
TAP	88	48	7
TAP	88	96	0
TAP	88	96	5
TAP	88	144	0
TAP	88	144	5
TAP	88	192	1
TAP	88	192	4
BRK	88	240	1
BRK	88	240	4
TAP	89	0	1
TAP	89	48	3
TAP	89	96	1
TAP	89	144	1
TAP	89	192	6
TAP	89	240	4
TAP	89	288	6
TAP	89	336	6
TAP	90	0	1
TAP	90	48	0
TAP	90	96	2
TAP	90	96	7
TAP	90	144	2
TAP	90	144	7
TAP	90	192	6
TAP	90	240	7
TAP	90	288	0
TAP	90	288	5
TAP	90	336	0
TAP	90	336	5
STR	91	0	1
SI_	91	0	1	96	48	5
STR	91	96	0
SI_	91	96	0	96	48	4
STR	91	192	7
SI_	91	192	7	96	48	3
STR	91	288	6
SI_	91	288	6	96	48	2
TAP	92	0	0
TAP	92	48	0
TAP	92	96	0
TAP	92	192	1
TAP	92	192	3
TAP	92	264	3
TAP	92	264	4
TAP	92	336	4
TAP	92	336	6
TAP	93	48	0
TAP	93	48	7
BRK	93	96	1
BRK	93	96	6
TAP	93	192	4
TAP	93	240	3
TAP	93	288	2
TAP	93	288	5
TAP	94	0	5
TAP	94	48	7
TAP	94	96	5
TAP	94	144	5
TAP	94	192	2
TAP	94	240	0
TAP	94	288	2
TAP	94	336	2
TAP	95	0	5
TAP	95	48	5
TAP	95	96	1
TAP	95	144	1
TAP	95	192	6
TAP	95	240	6
TAP	95	288	2
TAP	95	336	2
TAP	96	0	3
TAP	96	0	7
TAP	96	48	3
TAP	96	48	7
TAP	96	96	2
TAP	96	96	6
TAP	96	144	2
TAP	96	144	6
BST	96	192	1
SI_	96	192	1	96	48	4
BRK	96	192	5
TAP	97	0	6
TAP	97	0	7
TAP	97	96	3
TAP	97	144	1
TAP	97	144	7
TAP	97	240	4
TAP	97	288	0
TAP	97	288	6
TAP	98	0	3
TAP	98	48	0
TAP	98	48	1
TAP	98	144	4
TAP	98	192	6
STR	98	192	7
SI_	98	192	7	96	48	3
TAP	99	0	0
TAP	99	0	1
TAP	99	96	4
TAP	99	144	0
TAP	99	144	6
TAP	99	240	3
TAP	99	288	1
TAP	99	288	7
TAP	100	0	4
TAP	100	48	6
TAP	100	48	7
TAP	100	144	3
STR	100	192	0
SI_	100	192	0	96	48	4
TAP	100	192	1
TAP	101	0	2
TAP	101	0	3
TAP	101	96	7
TAP	101	144	3
TAP	101	144	5
TAP	101	240	0
TAP	101	288	2
TAP	101	288	4
TAP	102	0	7
TAP	102	48	4
TAP	102	48	5
TAP	102	144	0
STR	102	192	2
SI_	102	192	2	96	48	7
STR	102	192	3
SI_	102	192	3	96	48	6
BRK	103	0	0
TAP	104	0	3
TAP	104	0	4
TAP	104	48	3
TAP	104	48	4
TAP	104	96	2
TAP	104	96	5
TAP	104	144	2
TAP	104	144	5
TAP	104	192	1
TAP	104	192	6
TAP	104	240	0
TAP	104	264	7
TAP	104	288	0
TAP	104	312	7
TAP	104	336	0
TAP	104	360	7
TAP	105	0	0
BRK	105	96	1
BRK	105	96	6
TAP	105	192	7
TAP	105	240	6
TAP	105	288	4
TAP	105	288	5
HLD	106	0	5	72
HLD	106	72	6	72
TAP	106	144	7
TAP	106	192	0
TAP	106	240	1
TAP	106	288	2
TAP	106	288	3
HLD	107	0	2	72
HLD	107	72	1	72
TAP	107	144	0
TAP	107	192	7
TAP	107	240	6
TAP	107	288	4
TAP	107	288	5
TAP	108	0	1
TAP	108	0	3
TAP	108	72	3
TAP	108	72	4
TAP	108	144	4
TAP	108	144	6
STR	108	192	0
SI_	108	192	0	96	48	3
STR	108	192	7
SI_	108	192	7	96	48	4
TAP	109	0	5
TAP	109	32	5
TAP	109	64	5
TAP	109	96	4
TAP	109	96	6
TAP	109	192	2
TAP	109	224	2
TAP	109	256	2
TAP	109	288	1
TAP	109	288	3
TAP	110	0	6
TAP	110	32	6
TAP	110	64	6
TAP	110	96	5
TAP	110	96	7
TAP	110	192	1
TAP	110	224	1
TAP	110	256	1
TAP	110	288	0
TAP	110	288	2
TAP	111	0	5
TAP	111	48	4
TAP	111	96	3
TAP	111	96	6
TAP	111	144	2
TAP	111	192	3
TAP	111	240	1
TAP	111	240	4
TAP	111	288	2
TAP	111	288	5
TAP	111	336	2
TAP	111	336	5
TAP	112	0	6
TAP	112	48	4
TAP	112	96	3
TAP	112	96	7
TAP	112	144	1
TAP	112	192	3
TAP	112	240	0
TAP	112	240	4
TAP	112	288	1
TAP	112	288	5
STR	113	0	6
SI_	113	0	6	96	48	3
TAP	113	48	6
STR	113	96	1
SI_	113	96	1	96	48	4
TAP	113	144	1
STR	113	192	6
SI_	113	192	6	96	48	2
TAP	113	240	6
STR	113	288	1
SI_	113	288	1	96	48	5
TAP	113	336	1
STR	114	0	7
SI_	114	0	7	96	48	2
TAP	114	48	7
STR	114	96	0
SI_	114	96	0	96	48	5
TAP	114	144	0
STR	114	192	7
SI_	114	192	7	96	48	3
TAP	114	240	7
STR	114	288	0
SI_	114	288	0	96	48	4
TAP	114	336	0
BRK	115	0	7
TAP	116	0	4
TAP	116	48	5
TAP	116	96	6
TAP	116	144	7
TAP	116	192	0
TAP	116	216	1
TAP	116	240	2
TAP	116	264	3
TAP	116	288	4
TAP	116	312	5
TAP	116	336	6
TAP	116	360	7
BST	117	0	0
SCR	117	0	0	96	1440	4
TAP	118	0	5
TAP	119	0	6
TAP	120	0	7
BRK	121	0	0

T_REC_TAP	602
T_REC_BRK	18
T_REC_XTP	0
T_REC_HLD	40
T_REC_XHO	0
T_REC_STR	48
T_REC_BST	5
T_REC_XST	0
T_REC_TTP	0
T_REC_THO	0
T_REC_SLD	54
T_REC_ALL	767
T_NUM_TAP	650
T_NUM_BRK	23
T_NUM_HLD	40
T_NUM_SLD	54
T_NUM_ALL	767
T_JUDGE_TAP	673
T_JUDGE_HLD	177
T_JUDGE_SLD	54
T_JUDGE_ALL	904
TTM_EACHPAIRS	172
TTM_SCR_TAP	325000
TTM_SCR_BRK	59800
TTM_SCR_HLD	40000
TTM_SCR_SLD	81000
TTM_SCR_ALL	505800
TTM_SCR_S	488400
TTM_SCR_SS	503500
TTM_RAT_ACV	10045

