VERSION	0.00.00	1.03.00
FES_MODE	0
BPM_DEF	202.000	202.000	202.000	202.000
MET_DEF	4	4
RESOLUTION	384
CLK_DEF	384
COMPATIBLE_CODE	MA2

BPM	0	0	202.000

TAP	1	0	2
TAP	1	192	3
TAP	2	0	4
TAP	2	0	5
TAP	3	0	6
TAP	3	192	7
TAP	4	0	0
BRK	4	192	1
TAP	5	0	2
TAP	5	192	3
HLD	6	0	4	192
TAP	6	192	3
TAP	7	0	5
TAP	7	192	4
HLD	8	0	3	192
TAP	8	192	4
STR	9	0	5
SI_	9	0	5	96	144	2
STR	10	0	1
SI_	10	0	1	96	144	6
STR	11	0	5
SI_	11	0	5	96	144	1
STR	12	0	2
SI_	12	0	2	96	144	6
TAP	13	0	4
TAP	13	96	4
TAP	13	192	3
TAP	13	288	3
TAP	14	0	2
TAP	14	0	5
TAP	14	96	2
TAP	14	96	5
TAP	14	192	1
TAP	14	192	6
TAP	14	288	1
TAP	14	288	6
TAP	15	0	0
TAP	15	0	7
TAP	15	96	1
TAP	15	96	6
TAP	15	192	2
TAP	15	192	5
TAP	15	288	3
TAP	15	288	4
TAP	16	0	2
TAP	16	96	1
BRK	16	192	0
BRK	16	192	7
TAP	17	0	6
TAP	17	96	7
TAP	17	192	0
TAP	17	192	7
TAP	18	0	1
TAP	18	96	0
TAP	18	192	0
TAP	18	192	7
TAP	19	0	2
TAP	19	96	3
TAP	19	192	3
TAP	19	192	4
TAP	20	0	5
TAP	20	96	4
TAP	20	192	3
TAP	20	192	4
TAP	21	0	4
TAP	21	96	3
TAP	21	96	5
TAP	21	192	2
TAP	21	192	6
TAP	22	0	3
TAP	22	96	2
TAP	22	96	4
TAP	22	192	1
TAP	22	192	5
TAP	23	0	3
TAP	23	0	4
TAP	23	96	2
TAP	23	96	5
TAP	23	192	1
TAP	23	192	6
TAP	23	288	0
TAP	23	288	7
TAP	24	0	1
TAP	24	96	2
BRK	24	192	3
BRK	24	192	4
HLD	25	0	2	384
HLD	26	0	3	384
HLD	27	0	4	384
TAP	28	0	5
TAP	28	192	4
TAP	28	192	5
HLD	29	0	6	384
HLD	30	0	7	384
HLD	31	0	0	384
TAP	32	0	1
TAP	32	192	0
TAP	32	192	7
TAP	33	0	0
TAP	33	96	1
TAP	33	96	7
TAP	33	192	0
TAP	33	288	1
TAP	33	288	7
TAP	34	0	7
TAP	34	96	0
TAP	34	96	6
TAP	34	192	7
TAP	34	288	0
TAP	34	288	6
TAP	35	0	4
TAP	35	0	5
TAP	35	96	4
TAP	35	96	5
TAP	35	192	2
TAP	35	192	3
TAP	35	288	2
TAP	35	288	3
STR	36	0	4
SSL	36	0	4	96	192	0
TAP	37	0	1
TAP	37	48	1
TAP	37	96	1
TAP	37	192	0
TAP	37	192	7
TAP	38	0	6
TAP	38	48	6
TAP	38	96	6
TAP	38	192	0
TAP	38	192	7
TAP	39	0	5
TAP	39	96	6
TAP	39	96	7
TAP	39	192	5
TAP	39	288	6
TAP	39	288	7
TAP	40	0	2
TAP	40	96	0
TAP	40	96	1
TAP	40	192	2
TAP	40	288	0
TAP	40	288	1
TAP	41	0	5
TAP	41	96	6
TAP	41	96	7
TAP	41	192	5
TAP	41	288	6
TAP	41	288	7
TAP	42	0	2
TAP	42	96	0
TAP	42	96	1
TAP	42	192	2
TAP	42	288	0
TAP	42	288	1
TAP	43	0	6
TAP	43	96	4
TAP	43	96	5
TAP	43	192	6
TAP	43	288	4
TAP	43	288	5
TAP	44	0	1
TAP	44	96	2
TAP	44	96	3
TAP	44	192	1
TAP	44	288	2
TAP	44	288	3
TAP	45	0	6
TAP	45	96	4
TAP	45	96	5
TAP	45	192	6
TAP	45	288	4
TAP	45	288	5
TAP	46	0	0
TAP	46	0	7
TAP	46	96	1
TAP	46	192	2
TAP	46	288	3
HLD	47	0	4	384
TAP	48	0	3
HLD	49	0	6	384
TAP	50	0	7
HLD	51	0	2	384
TAP	52	0	3
HLD	53	0	5	384
STR	54	0	4
SUR	54	0	4	96	192	3
TAP	55	0	4
HLD	55	0	5	288
TAP	55	96	4
TAP	55	192	4
TAP	55	288	4
HLD	56	0	2	288
TAP	56	0	3
TAP	56	96	3
TAP	56	192	3
TAP	56	288	3
TAP	57	0	3
TAP	57	0	4
TAP	57	96	3
TAP	57	96	4
TAP	57	192	2
TAP	57	192	5
TAP	57	288	2
TAP	57	288	5
TAP	58	0	1
TAP	58	0	6
TAP	58	96	1
TAP	58	96	6
TAP	58	192	0
TAP	58	192	7
TAP	58	288	0
TAP	58	288	7
TAP	59	0	0
TAP	59	96	1
TAP	59	192	2
TAP	59	288	3
TAP	60	0	4
TAP	60	96	5
TAP	60	192	6
TAP	60	288	7
TAP	61	0	0
TAP	61	0	7
TAP	61	96	0
TAP	61	96	1
TAP	61	192	0
TAP	61	192	7
TAP	61	288	6
TAP	61	288	7
HLD	62	0	0	192
HLD	62	0	7	192
TAP	62	288	0
TAP	63	0	7
TAP	63	96	6
TAP	63	192	5
TAP	63	288	4
TAP	64	0	3
TAP	64	96	2
TAP	64	192	0
TAP	64	192	1
TAP	64	288	0
TAP	64	288	1
TAP	65	0	0
TAP	65	96	1
TAP	65	192	2
TAP	65	288	3
TAP	66	0	4
TAP	66	96	5
TAP	66	192	6
TAP	66	192	7
TAP	66	288	6
TAP	66	288	7
TAP	67	0	6
TAP	67	96	5
TAP	67	192	4
TAP	67	288	3
TAP	68	0	2
TAP	68	96	1
TAP	68	192	0
TAP	68	192	7
TAP	68	288	0
TAP	68	288	7
TAP	69	0	6
TAP	69	96	5
TAP	69	192	4
TAP	69	288	3
HLD	70	0	2	192
HLD	70	0	4	192
BRK	70	288	3
HLD	71	0	2	96
TAP	71	144	2
HLD	72	0	5	96
TAP	72	144	5
HLD	73	0	3	96
HLD	73	0	4	96
TAP	73	144	3
TAP	73	144	4
HLD	74	0	2	96
HLD	74	0	5	96
TAP	74	144	2
TAP	74	144	5
TAP	75	0	0
TAP	75	0	1
TAP	75	192	6
TAP	75	192	7
TAP	76	0	4
TAP	76	0	5
TAP	76	192	2
TAP	76	192	3
TAP	77	0	1
TAP	77	96	0
TAP	77	192	7
TAP	77	288	6
TAP	78	0	5
TAP	78	48	5
TAP	78	96	5
TAP	78	192	4
TAP	78	240	4
TAP	78	288	4
BRK	79	0	3
HLD	80	0	0	288
TAP	80	192	7
BRK	80	288	7
TAP	81	0	6
TAP	81	96	5
TAP	81	96	7
TAP	81	192	1
TAP	81	288	0
TAP	81	288	2
TAP	82	0	5
TAP	82	96	4
TAP	82	96	6
TAP	82	192	2
TAP	82	288	1
TAP	82	288	3
TAP	83	0	6
TAP	83	96	4
TAP	83	96	5
TAP	83	192	1
TAP	83	288	2
TAP	83	288	3
TAP	84	0	3
TAP	84	0	4
TAP	84	96	2
TAP	84	96	5
HLD	84	192	1	96
HLD	84	192	6	96
TAP	85	0	6
TAP	85	0	7
TAP	85	96	0
TAP	85	96	5
TAP	85	192	1
TAP	85	192	4
TAP	85	288	2
TAP	85	288	3
TAP	86	0	4
TAP	86	0	5
TAP	86	96	3
TAP	86	96	6
TAP	86	192	2
TAP	86	192	7
TAP	86	288	0
TAP	86	288	1
TAP	87	0	1
TAP	87	48	1
TAP	87	96	1
TAP	87	192	6
TAP	87	240	6
TAP	87	288	6
TAP	88	0	0
TAP	88	0	7
TAP	88	96	0
TAP	88	96	7
HLD	88	192	1	96
HLD	88	192	6	96
HLD	89	0	5	96
TAP	89	96	4
TAP	89	192	3
TAP	89	240	3
TAP	89	288	3
HLD	90	0	2	96
TAP	90	96	3
TAP	90	192	4
TAP	90	240	4
TAP	90	288	4
TAP	91	0	1
TAP	91	96	0
TAP	91	192	7
TAP	91	288	6
TAP	92	0	5
TAP	92	96	4
HLD	92	192	3	96
HLD	92	192	4	96
TAP	93	0	2
TAP	93	0	3
TAP	93	96	2
TAP	93	192	1
TAP	93	288	0
TAP	94	0	3
TAP	94	0	4
TAP	94	96	5
TAP	94	192	6
TAP	94	288	7
TAP	95	0	0
TAP	95	48	0
TAP	95	96	0
TAP	95	192	7
TAP	95	240	7
TAP	95	288	7
TAP	96	0	1
TAP	96	0	6
TAP	96	96	1
TAP	96	96	6
HLD	96	192	2	96
HLD	96	192	5	96
TAP	97	0	2
TAP	97	0	3
TAP	97	96	1
TAP	97	144	1
TAP	97	192	1
TAP	97	288	0
TAP	97	288	7
TAP	98	0	4
TAP	98	0	5
TAP	98	96	6
TAP	98	144	6
TAP	98	192	6
TAP	98	288	0
TAP	98	288	7
TAP	99	0	0
TAP	99	0	1
TAP	99	96	2
TAP	99	144	2
TAP	99	192	2
TAP	99	288	3
TAP	99	288	4
TAP	100	0	6
TAP	100	0	7
TAP	100	96	5
TAP	100	144	5
TAP	100	192	5
TAP	100	288	3
TAP	100	288	4
TAP	101	0	4
TAP	101	96	3
TAP	101	96	5
TAP	101	192	2
TAP	101	192	6
TAP	101	288	1
TAP	101	288	7
TAP	102	0	0
TAP	102	96	7
TAP	102	192	1
TAP	102	192	6
TAP	102	288	1
TAP	102	288	6
BRK	103	0	0
BRK	103	0	7
TAP	103	192	0
TAP	103	192	7
STR	103	288	0
SXL	103	288	0	96	288	4
STR	103	288	7
SXR	103	288	7	96	288	3
TAP	105	0	6
TAP	105	96	7
TAP	105	192	0
TAP	105	192	7
TAP	105	240	0
TAP	105	240	7
TAP	105	288	0
TAP	105	288	7
TAP	106	0	1
TAP	106	96	0
TAP	106	192	0
TAP	106	192	7
TAP	106	240	0
TAP	106	240	7
TAP	106	288	0
TAP	106	288	7
TAP	107	0	5
TAP	107	96	4
TAP	107	192	3
TAP	107	192	4
TAP	107	240	3
TAP	107	240	4
TAP	107	288	3
TAP	107	288	4
TAP	108	0	2
TAP	108	96	3
HLD	108	192	3	96
HLD	108	192	4	96
HLD	109	0	6	96
TAP	109	96	5
HLD	109	192	1	96
TAP	109	288	2
HLD	110	0	2	96
HLD	110	0	5	96
HLD	110	192	1	96
HLD	110	192	6	96
TAP	111	0	5
TAP	111	96	4
TAP	111	96	6
TAP	111	192	6
TAP	111	240	6
TAP	111	288	5
TAP	111	288	6
TAP	112	0	2
TAP	112	96	1
TAP	112	96	3
TAP	112	192	1
TAP	112	240	1
TAP	112	288	1
TAP	112	288	2
TAP	113	0	2
TAP	113	96	1
TAP	113	96	3
TAP	113	192	5
TAP	113	288	4
TAP	113	288	6
TAP	114	0	0
TAP	114	0	7
TAP	114	96	1
TAP	114	96	6
TAP	114	192	2
TAP	114	192	5
TAP	114	288	3
TAP	114	288	4
HLD	115	0	2	192
HLD	115	0	5	192
TAP	115	288	3
TAP	116	0	4
TAP	116	0	5
TAP	116	96	6
TAP	116	96	7
TAP	116	192	0
TAP	116	192	1
TAP	116	288	2
TAP	116	288	3
HLD	117	0	4	1536
TAP	118	0	3
TAP	119	0	2
TAP	120	0	1
BRK	121	0	0

T_REC_TAP	450
T_REC_BRK	11
T_REC_XTP	0
T_REC_HLD	46
T_REC_XHO	0
T_REC_STR	8
T_REC_BST	0
T_REC_XST	0
T_REC_TTP	0
T_REC_THO	0
T_REC_SLD	8
T_REC_ALL	523
T_NUM_TAP	458
T_NUM_BRK	11
T_NUM_HLD	46
T_NUM_SLD	8
T_NUM_ALL	523
T_JUDGE_TAP	469
T_JUDGE_HLD	210
T_JUDGE_SLD	8
T_JUDGE_ALL	687
TTM_EACHPAIRS	149
TTM_SCR_TAP	229000
TTM_SCR_BRK	28600
TTM_SCR_HLD	46000
TTM_SCR_SLD	12000
TTM_SCR_ALL	315600
TTM_SCR_S	305100
TTM_SCR_SS	314500
TTM_RAT_ACV	10034

