VERSION	0.00.00	1.03.00
FES_MODE	0
BPM_DEF	202.000	202.000	202.000	202.000
MET_DEF	4	4
RESOLUTION	384
CLK_DEF	384
COMPATIBLE_CODE	MA2

BPM	0	0	202.000

HLD	1	0	0	384
HLD	3	0	1	384
HLD	5	0	2	384
HLD	7	0	3	384
TAP	9	0	4
TAP	9	192	4
TAP	10	0	4
TAP	11	0	5
TAP	11	192	5
TAP	12	0	5
TAP	13	0	6
TAP	13	192	6
TAP	14	0	6
TAP	15	0	7
TAP	15	192	7
BRK	16	0	7
TAP	17	0	6
TAP	17	192	6
TAP	18	0	6
TAP	19	0	5
TAP	19	192	5
TAP	20	0	4
TAP	20	0	5
TAP	21	0	4
TAP	21	192	4
TAP	22	0	4
TAP	23	0	3
TAP	23	192	3
TAP	24	0	3
TAP	24	0	4
STR	25	0	2
SI_	25	0	2	96	288	6
STR	27	0	5
SI_	27	0	5	96	288	1
STR	29	0	2
SI_	29	0	2	96	288	7
STR	31	0	5
SI_	31	0	5	96	288	0
TAP	33	0	1
TAP	33	192	1
TAP	34	0	0
TAP	34	0	1
TAP	34	192	0
TAP	34	192	1
TAP	35	0	2
TAP	35	192	2
TAP	36	0	2
TAP	36	0	3
TAP	36	192	2
TAP	36	192	3
TAP	37	0	5
TAP	37	192	5
TAP	38	0	4
TAP	38	0	5
TAP	39	96	6
TAP	39	192	6
TAP	39	288	6
TAP	40	96	5
TAP	40	192	5
TAP	40	288	5
TAP	41	96	4
TAP	41	192	4
TAP	41	288	4
TAP	42	96	3
TAP	42	96	4
TAP	42	192	3
TAP	42	192	4
TAP	42	288	3
TAP	42	288	4
TAP	43	96	2
TAP	43	192	2
TAP	43	288	2
TAP	44	96	1
TAP	44	192	1
TAP	44	288	1
TAP	45	96	0
TAP	45	192	0
TAP	45	288	7
STR	46	0	7
SI_	46	0	7	96	288	3
TAP	49	0	3
TAP	49	0	4
TAP	50	0	3
TAP	50	0	4
STR	51	0	3
SI_	51	0	3	96	288	0
STR	53	0	4
SI_	53	0	4	96	288	7
TAP	55	0	0
TAP	55	96	0
TAP	55	192	0
TAP	56	0	1
TAP	56	96	1
TAP	56	192	0
TAP	56	192	1
TAP	57	0	2
TAP	57	96	2
TAP	57	192	2
TAP	58	0	3
TAP	58	96	3
TAP	58	192	3
TAP	58	192	4
TAP	59	0	4
TAP	59	96	4
TAP	59	192	4
TAP	60	0	5
TAP	60	96	5
TAP	60	192	4
TAP	60	192	5
TAP	61	0	6
TAP	61	96	6
TAP	61	192	6
TAP	62	0	7
TAP	62	96	7
TAP	62	192	0
TAP	62	192	7
HLD	63	0	0	288
TAP	64	192	0
TAP	64	288	0
HLD	65	0	7	288
TAP	66	192	7
TAP	66	288	7
HLD	67	0	0	288
TAP	68	192	0
TAP	68	288	0
HLD	69	0	7	288
TAP	71	0	0
TAP	71	0	1
TAP	72	0	6
TAP	72	0	7
TAP	73	0	4
TAP	73	0	5
TAP	74	0	2
TAP	74	0	3
TAP	75	0	0
TAP	75	0	1
TAP	75	192	0
TAP	75	192	1
TAP	76	0	6
TAP	76	0	7
TAP	76	192	6
TAP	76	192	7
TAP	77	0	4
TAP	77	0	5
TAP	77	192	4
TAP	77	192	5
TAP	78	0	2
TAP	78	0	3
TAP	78	192	2
TAP	78	192	3
BRK	79	0	0
BRK	79	0	1
BRK	81	0	0
TAP	81	96	0
TAP	81	192	1
TAP	81	288	1
TAP	82	0	2
TAP	82	0	3
TAP	82	96	2
TAP	82	96	3
TAP	82	192	2
TAP	82	192	3
TAP	83	0	4
TAP	83	96	4
TAP	83	192	5
TAP	83	288	5
TAP	84	0	6
TAP	84	0	7
TAP	84	96	6
TAP	84	96	7
TAP	84	192	6
TAP	84	192	7
TAP	85	0	7
TAP	85	96	7
TAP	85	192	6
TAP	85	288	6
TAP	86	0	4
TAP	86	0	5
TAP	86	96	4
TAP	86	96	5
TAP	86	192	4
TAP	86	192	5
TAP	87	0	3
TAP	87	96	3
TAP	87	192	2
TAP	87	288	2
TAP	88	0	0
TAP	88	0	1
TAP	88	96	0
TAP	88	96	1
BRK	88	192	0
BRK	88	192	1
TAP	89	0	2
TAP	89	96	2
TAP	89	192	2
TAP	90	0	1
TAP	90	0	3
TAP	90	96	1
TAP	90	96	3
TAP	90	192	1
TAP	90	192	3
TAP	91	0	4
TAP	91	96	4
TAP	91	192	4
TAP	92	0	3
TAP	92	0	5
TAP	92	96	3
TAP	92	96	5
TAP	92	192	3
TAP	92	192	5
TAP	93	0	6
TAP	93	96	6
TAP	93	192	6
TAP	94	0	5
TAP	94	0	7
TAP	94	96	5
TAP	94	96	7
TAP	94	192	5
TAP	94	192	7
TAP	95	0	0
TAP	95	96	0
TAP	95	192	0
TAP	96	0	1
TAP	96	0	7
TAP	96	96	1
TAP	96	96	7
TAP	96	192	1
TAP	96	192	7
HLD	97	0	6	288
TAP	97	288	7
TAP	98	192	0
TAP	98	192	1
TAP	98	288	0
TAP	98	288	1
HLD	99	0	1	288
TAP	99	288	0
TAP	100	192	6
TAP	100	192	7
TAP	100	288	6
TAP	100	288	7
HLD	101	0	6	288
TAP	101	288	7
TAP	102	192	0
TAP	102	192	7
TAP	102	288	0
TAP	102	288	7
TAP	103	0	0
TAP	103	0	7
TAP	104	0	1
TAP	104	0	6
TAP	104	96	1
TAP	104	96	6
BRK	104	192	1
BRK	104	192	6
TAP	105	0	0
TAP	105	96	0
TAP	105	192	1
TAP	105	288	1
TAP	106	0	2
TAP	106	96	2
TAP	106	192	3
TAP	106	288	3
TAP	107	0	4
TAP	107	96	4
TAP	107	192	5
TAP	107	288	5
TAP	108	0	6
TAP	108	96	6
TAP	108	192	7
TAP	108	288	7
TAP	109	0	0
TAP	109	0	7
TAP	109	192	4
TAP	109	192	5
TAP	110	0	2
TAP	110	0	3
TAP	110	192	0
TAP	110	192	7
TAP	111	0	7
TAP	111	96	7
TAP	111	192	6
TAP	111	288	6
TAP	112	0	5
TAP	112	96	5
TAP	112	192	4
TAP	112	288	4
TAP	113	0	3
TAP	113	96	3
TAP	113	192	2
TAP	113	288	2
TAP	114	0	1
TAP	114	96	1
TAP	114	192	0
TAP	114	288	0
TAP	115	0	0
TAP	115	0	7
TAP	116	0	1
TAP	116	0	6
TAP	116	96	1
TAP	116	96	6
BRK	116	192	1
BRK	116	192	6
STR	117	0	7
SI_	117	0	7	96	288	4
STR	119	0	0
SI_	119	0	0	96	288	3
TAP	121	0	7

T_REC_TAP	268
T_REC_BRK	10
T_REC_XTP	0
T_REC_HLD	11
T_REC_XHO	0
T_REC_STR	9
T_REC_BST	0
T_REC_XST	0
T_REC_TTP	0
T_REC_THO	0
T_REC_SLD	9
T_REC_ALL	307
T_NUM_TAP	277
T_NUM_BRK	10
T_NUM_HLD	11
T_NUM_SLD	9
T_NUM_ALL	307
T_JUDGE_TAP	287
T_JUDGE_HLD	74
T_JUDGE_SLD	9
T_JUDGE_ALL	370
TTM_EACHPAIRS	71
TTM_SCR_TAP	138500
TTM_SCR_BRK	26000
TTM_SCR_HLD	11000
TTM_SCR_SLD	13500
TTM_SCR_ALL	189000
TTM_SCR_S	182400
TTM_SCR_SS	188000
TTM_RAT_ACV	10053

