VERSION	0.00.00	1.03.00
FES_MODE	0
BPM_DEF	155.000	155.000	155.000	155.000
MET_DEF	4	4
RESOLUTION	384
CLK_DEF	384
COMPATIBLE_CODE	MA2

BPM	0	0	155.000
MET	0	0	4	4
MET	43	0	4	2
MET	43	192	4	4

HLD	1	360	5	192
TAP	2	96	4
HLD	2	168	3	192
TAP	2	288	4
HLD	2	360	6	192
TAP	3	168	7
TAP	4	0	0
HLD	4	0	1	192
TAP	4	192	3
TAP	4	288	3
TAP	4	288	4
TAP	4	360	4
HLD	4	360	6	216
TAP	5	192	7
TAP	5	288	4
TAP	5	312	3
TAP	5	336	4
HLD	5	360	2	120
STR	6	96	7
SCL	6	96	7	96	96	3
TAP	6	192	0
TAP	6	288	1
HLD	7	0	2	96
STR	7	96	7
SCL	7	96	7	96	96	3
TAP	7	192	0
TAP	7	288	1
HLD	8	0	2	96
STR	8	96	7
SCL	8	96	7	96	96	3
TAP	8	192	0
TAP	8	288	1
TAP	9	0	2
TAP	9	24	5
TAP	9	48	2
TAP	9	72	5
TAP	9	96	3
TAP	9	120	4
TAP	9	144	3
TAP	9	168	4
TAP	9	192	3
TAP	9	216	5
TAP	9	240	2
TAP	9	264	6
TAP	9	288	1
TAP	9	312	7
TAP	9	336	0
BST	9	360	1
SCR	9	360	1	96	216	7
BRK	9	360	6
BST	10	360	0
SI_	10	360	0	96	48	3
SI_	10	360	0	96	48	5
BST	11	168	4
SF_	11	168	4	96	48	0
BRK	11	360	2
BRK	11	360	6
TAP	12	48	5
TAP	12	96	4
TAP	12	96	6
TAP	12	168	6
TAP	12	168	7
TAP	12	216	2
TAP	12	240	3
TAP	12	288	1
TAP	12	288	4
TAP	12	360	0
TAP	12	360	1
TAP	13	24	5
TAP	13	48	4
TAP	13	96	3
TAP	13	96	6
TAP	13	168	2
TAP	13	168	5
TAP	13	216	3
TAP	13	240	4
TAP	13	264	2
TAP	13	288	5
TAP	13	312	1
TAP	13	336	6
BRK	13	360	0
TAP	14	96	0
TAP	14	96	1
TAP	14	144	1
TAP	14	192	1
TAP	14	192	2
TAP	14	240	1
TAP	14	288	1
TAP	14	288	3
TAP	14	336	5
TAP	15	0	4
TAP	15	0	6
TAP	15	48	6
TAP	15	96	6
TAP	15	96	7
TAP	15	144	6
TAP	15	192	5
TAP	15	192	6
TAP	15	240	6
TAP	15	288	4
TAP	15	288	6
TAP	15	336	2
TAP	15	336	5
TAP	16	0	0
TAP	16	24	4
TAP	16	48	0
TAP	16	72	4
TAP	16	96	1
TAP	16	120	5
TAP	16	144	1
TAP	16	168	5
TAP	16	192	2
TAP	16	216	6
TAP	16	240	2
TAP	16	264	6
TAP	16	288	3
TAP	16	288	7
TAP	16	300	0
TAP	16	312	1
TAP	16	324	2
TAP	16	336	3
TAP	16	348	4
TAP	16	360	5
TAP	16	372	6
TAP	17	0	2
HLD	17	0	7	192
TAP	17	96	1
STR	17	192	0
SV_	17	192	0	96	48	3
SV_	17	192	0	96	48	6
STR	17	288	0
SCR	17	288	0	96	144	7
HLD	18	0	4	144
STR	18	192	0
SCR	18	192	0	96	96	4
STR	18	192	4
SCR	18	192	4	96	96	0
STR	18	288	0
SSL	18	288	0	96	120	4
STR	18	288	4
SSL	18	288	4	96	120	0
TAP	19	192	1
STR	19	192	5
SLL	19	192	5	96	72	7
TAP	20	0	1
TAP	20	48	2
TAP	20	72	2
STR	20	96	3
SXL	20	96	3	96	96	7
TAP	20	192	0
BST	20	336	1
SCR	20	336	1	96	48	4
BRK	20	336	5
TAP	21	48	5
TAP	21	64	6
TAP	21	80	7
TAP	21	96	0
BRK	21	168	2
BRK	21	168	7
STR	21	288	1
SCR	21	288	1	96	144	6
STR	21	288	6
SCL	21	288	6	96	144	1
TAP	22	0	1
TAP	22	0	6
TAP	22	192	0
TAP	22	192	7
TAP	22	288	2
TAP	22	288	5
TAP	22	312	2
TAP	22	312	5
TAP	22	360	1
TAP	23	0	3
TAP	23	24	1
TAP	23	48	6
TAP	23	72	4
TAP	23	96	6
TAP	23	120	0
TAP	23	144	7
TAP	23	168	0
BST	23	192	7
SF_	23	192	7	96	48	3
HLD	24	0	1	72
TAP	24	72	3
TAP	24	96	2
TAP	24	144	3
TAP	24	144	4
TAP	24	192	5
TAP	24	216	4
TAP	24	240	5
TAP	24	264	4
BRK	24	288	7
TAP	25	0	0
TAP	25	12	1
TAP	25	24	2
TAP	25	36	3
TAP	25	48	4
TAP	25	60	5
TAP	25	72	6
TAP	25	84	7
TAP	25	96	0
TAP	25	108	1
TAP	25	120	2
TAP	25	132	3
TAP	25	144	4
TAP	25	156	5
TAP	25	168	6
TAP	25	180	7
TAP	25	192	0
TAP	25	204	1
TAP	25	216	2
TAP	25	228	3
TAP	25	240	4
TAP	25	252	5
TAP	25	264	6
TAP	25	276	7
BRK	25	288	0
BRK	25	288	4
HLD	26	0	1	48
TAP	26	48	0
TAP	26	72	0
HLD	26	96	1	48
TAP	26	144	7
HLD	26	192	1	48
TAP	26	240	6
HLD	26	288	1	48
HLD	26	288	4	48
HLD	27	0	2	48
HLD	27	0	3	48
HLD	27	96	2	48
HLD	27	96	3	48
STR	27	192	1
SLR	27	192	1	96	48	7
STR	27	192	4
SLL	27	192	4	96	48	7
HLD	28	0	6	48
TAP	28	48	7
TAP	28	72	7
HLD	28	96	6	48
TAP	28	144	0
HLD	28	192	6	48
TAP	28	240	1
BRK	28	288	2
BRK	28	288	5
HLD	28	360	3	48
HLD	28	360	4	48
TAP	29	72	2
TAP	29	72	3
TAP	29	96	2
TAP	29	96	3
HLD	29	168	3	48
HLD	29	168	4	48
TAP	29	264	4
TAP	29	264	6
TAP	29	288	4
TAP	29	288	6
HLD	30	0	5	48
TAP	30	48	4
TAP	30	72	4
HLD	30	96	5	48
TAP	30	144	3
HLD	30	192	5	48
TAP	30	240	2
HLD	30	288	0	48
HLD	30	288	5	48
HLD	31	0	6	48
HLD	31	0	7	48
HLD	31	96	6	48
HLD	31	96	7	48
STR	31	192	0
SLL	31	192	0	96	48	3
STR	31	192	5
SLR	31	192	5	96	48	3
HLD	32	0	1	48
TAP	32	48	0
TAP	32	72	0
HLD	32	96	1	48
TAP	32	144	7
HLD	32	192	2	48
HLD	32	192	5	48
BRK	32	288	3
BRK	32	288	4
TAP	32	360	1
TAP	32	360	6
TAP	33	0	0
TAP	33	24	7
TAP	33	48	0
TAP	33	72	7
TAP	33	96	1
TAP	33	120	6
TAP	33	144	2
TAP	33	168	5
TAP	33	192	3
TAP	33	208	4
TAP	33	224	3
TAP	33	240	4
TAP	33	256	3
TAP	33	272	4
BRK	33	288	3
HLD	34	0	4	48
HLD	34	72	3	48
HLD	34	72	5	48
TAP	34	144	2
TAP	34	144	6
TAP	34	288	3
TAP	34	312	4
HLD	34	360	2	72
HLD	34	360	5	72
HLD	35	96	1	48
HLD	35	96	3	48
HLD	35	192	4	48
HLD	35	192	6	48
TAP	35	288	2
TAP	35	288	5
TAP	35	336	2
TAP	35	336	5
TAP	36	0	3
TAP	36	0	4
TAP	36	24	3
TAP	36	24	4
TAP	36	48	3
TAP	36	48	4
TAP	36	72	3
TAP	36	72	4
TAP	36	96	3
TAP	36	96	4
TAP	36	168	2
TAP	36	168	5
STR	36	240	0
SCR	36	240	0	96	240	7
STR	36	240	7
SCL	36	240	7	96	240	0
TAP	36	336	0
TAP	36	336	7
TAP	37	288	0
TAP	37	288	7
TAP	37	320	1
TAP	37	320	6
TAP	37	352	2
TAP	37	352	5
HLD	38	0	3	48
HLD	38	0	4	48
HLD	38	72	2	48
HLD	38	72	5	48
TAP	38	144	1
TAP	38	144	6
HLD	38	240	7	96
TAP	38	288	0
TAP	38	304	1
TAP	38	320	2
HLD	38	336	3	48
TAP	39	0	1
TAP	39	16	2
TAP	39	32	3
HLD	39	48	4	48
TAP	39	96	7
TAP	39	112	6
TAP	39	128	5
HLD	39	144	4	48
TAP	39	192	6
TAP	39	208	5
TAP	39	224	4
HLD	39	240	3	48
BRK	39	288	0
HLD	40	0	2	48
HLD	40	72	1	48
HLD	40	72	3	48
STR	40	144	0
SI_	40	144	0	96	48	3
TAP	40	144	4
TAP	40	240	0
TAP	40	240	6
HLD	40	288	5	48
HLD	40	360	4	48
HLD	40	360	6	48
HLD	41	48	3	336
BRK	41	48	7
TAP	42	0	5
TAP	42	24	4
TAP	42	48	6
TAP	42	72	3
TAP	42	96	7
TAP	42	120	2
TAP	42	144	0
TAP	42	168	1
TAP	42	192	3
TAP	42	216	2
TAP	42	240	4
TAP	42	264	1
TAP	42	288	5
TAP	42	312	0
HLD	42	336	6	48
TAP	43	0	0
TAP	43	16	1
TAP	43	32	2
BRK	43	48	3
BRK	43	48	7
TAP	43	96	4
TAP	43	96	5
TAP	43	144	4
TAP	43	168	6
TAP	43	216	0
TAP	43	216	7
TAP	43	264	2
TAP	43	264	3
TAP	43	312	1
TAP	43	336	0
TAP	43	360	2
TAP	44	24	3
TAP	44	24	4
TAP	44	72	6
TAP	44	72	7
TAP	44	120	5
TAP	44	144	4
TAP	44	168	6
TAP	44	216	0
TAP	44	216	7
TAP	44	264	4
TAP	44	264	5
TAP	44	312	2
TAP	44	336	3
TAP	44	360	1
TAP	45	24	0
TAP	45	24	7
TAP	45	72	1
TAP	45	72	6
TAP	45	120	5
TAP	45	144	4
TAP	45	168	7
TAP	45	216	0
TAP	45	216	6
TAP	45	264	2
TAP	45	264	3
TAP	45	312	1
TAP	45	336	0
TAP	45	360	3
TAP	46	24	4
TAP	46	24	5
TAP	46	72	1
TAP	46	72	7
TAP	46	120	6
TAP	46	144	7
TAP	46	168	4
TAP	46	216	1
TAP	46	240	4
TAP	46	264	3
TAP	46	288	6
TAP	46	312	2
TAP	46	336	4
BRK	46	360	0
BRK	46	360	5
TAP	47	24	6
TAP	47	48	7
TAP	47	96	0
TAP	47	96	2
TAP	47	144	5
BRK	47	168	3
BRK	47	168	6
TAP	47	216	1
TAP	47	216	4
TAP	47	264	6
TAP	47	288	0
TAP	47	312	7
TAP	47	336	1
TAP	47	360	3
TAP	48	24	2
TAP	48	24	7
TAP	48	72	4
TAP	48	72	5
TAP	48	120	6
TAP	48	144	7
TAP	48	168	5
TAP	48	216	2
TAP	48	216	4
TAP	48	264	1
TAP	48	288	7
TAP	48	312	0
TAP	48	336	6
TAP	48	360	4
TAP	49	24	0
TAP	49	24	5
TAP	49	72	2
TAP	49	72	3
TAP	49	120	1
TAP	49	144	0
TAP	49	168	2
TAP	49	216	3
TAP	49	216	6
TAP	49	264	4
TAP	49	288	2
TAP	49	312	7
TAP	49	336	1
TAP	49	360	5
TAP	50	24	3
TAP	50	24	4
TAP	50	72	2
TAP	50	72	5
TAP	50	120	0
TAP	50	120	7
TAP	50	144	0
TAP	50	144	7
TAP	50	192	1
TAP	50	216	3
TAP	50	240	2
TAP	50	264	4
TAP	50	288	3
TAP	50	312	5
TAP	50	336	4
TAP	50	360	6
STR	51	0	0
SCR	51	0	0	96	96	6
TAP	51	24	7
TAP	51	48	1
TAP	51	72	6
BRK	51	96	0
BRK	51	288	2
BST	51	288	5
SCL	51	288	5	96	48	2
TAP	51	336	1
STR	52	0	0
SUR	52	0	0	96	48	4
TAP	52	0	5
TAP	52	48	0
TAP	52	96	0
TAP	52	96	7
TAP	52	144	6
TAP	52	192	5
TAP	52	216	3
TAP	52	240	4
TAP	52	264	2
TAP	52	288	3
TAP	52	336	0
HLD	52	360	6	48
TAP	53	24	7
TAP	53	72	4
TAP	53	72	6
TAP	53	120	2
TAP	53	144	3
TAP	53	192	0
TAP	53	192	7
TAP	53	240	1
STR	53	288	2
SCR	53	288	2	96	48	5
TAP	53	288	5
TAP	53	336	6
TAP	54	0	2
STR	54	0	7
SUL	54	0	7	96	48	3
TAP	54	48	7
TAP	54	96	0
TAP	54	96	7
TAP	54	144	1
TAP	54	192	2
TAP	54	216	6
TAP	54	240	3
TAP	54	264	4
TAP	54	288	1
TAP	54	312	5
TAP	54	336	3
BRK	54	360	2
BRK	54	360	7
TAP	55	24	1
TAP	55	48	0
TAP	55	96	5
TAP	55	96	7
TAP	55	144	2
BRK	55	168	1
BRK	55	168	4
TAP	55	240	2
TAP	55	240	7
STR	55	288	1
SCL	55	288	1	96	48	6
TAP	55	288	6
TAP	55	336	5
TAP	56	0	1
STR	56	0	4
SUR	56	0	4	96	48	0
TAP	56	48	4
TAP	56	96	3
TAP	56	96	4
TAP	56	144	2
TAP	56	192	1
TAP	56	216	7
TAP	56	240	0
TAP	56	264	6
TAP	56	288	7
TAP	56	336	4
HLD	56	360	2	48
TAP	57	24	3
TAP	57	72	0
TAP	57	72	2
TAP	57	120	6
TAP	57	144	7
STR	57	192	0
SI_	57	192	0	96	48	2
TAP	57	192	5
TAP	57	240	4
TAP	57	264	4
STR	57	288	0
SI_	57	288	0	96	48	6
TAP	57	336	4
TAP	57	360	4
STR	58	0	0
SI_	58	0	0	96	48	4
TAP	58	48	4
TAP	58	72	4
TAP	58	96	0
TAP	58	144	5
STR	58	192	7
SCL	58	192	7	96	48	4
TAP	58	240	3
TAP	58	264	3
STR	58	288	7
SCR	58	288	7	96	48	2
TAP	58	336	3
TAP	58	360	3
STR	59	0	7
SI_	59	0	7	96	48	3
TAP	59	48	3
TAP	59	72	3
BRK	59	96	7
STR	59	192	1
SCL	59	192	1	96	192	5
TAP	59	192	4
HLD	60	192	3	288
STR	60	192	6
SCR	60	192	6	96	192	2
STR	61	192	1
SCR	61	192	1	96	192	5
HLD	61	192	6	288
HLD	62	192	1	288
STR	62	192	6
SCL	62	192	6	96	192	2
HLD	63	192	6	168
TAP	63	192	7
HLD	63	288	0	72
TAP	64	48	0
TAP	64	48	6
TAP	64	96	0
TAP	64	96	6
TAP	64	192	0
HLD	64	192	1	168
HLD	64	288	7	72
TAP	65	48	1
TAP	65	48	7
STR	65	96	1
SCR	65	96	1	96	192	7
STR	65	96	7
SCL	65	96	7	96	192	1
HLD	66	96	0	288
TAP	66	192	5
TAP	66	288	6
TAP	67	0	7
BRK	67	96	0
BRK	67	96	7
TAP	67	108	1
TAP	67	108	6
TAP	67	120	2
TAP	67	120	5
TAP	67	132	3
TAP	67	132	4
TAP	67	192	6
TAP	67	216	4
TAP	67	240	5
TAP	67	264	3
TAP	67	288	4
TAP	67	312	2
TAP	67	336	3
TAP	68	0	1
TAP	68	0	4
TAP	68	48	0
TAP	68	48	7
STR	68	96	3
SI_	68	96	3	96	48	6
TAP	68	96	6
TAP	68	144	4
TAP	68	192	1
STR	68	192	3
SI_	68	192	3	96	48	0
TAP	68	240	2
TAP	68	288	3
STR	68	288	7
SI_	68	288	7	96	48	3
TAP	68	336	6
TAP	69	0	5
TAP	69	0	7
TAP	69	48	4
TAP	69	96	2
TAP	69	144	0
TAP	69	144	6
TAP	69	192	1
TAP	69	216	3
TAP	69	240	2
TAP	69	264	4
TAP	69	288	3
TAP	69	312	5
TAP	69	336	4
TAP	70	0	3
TAP	70	0	6
TAP	70	48	0
TAP	70	48	7
TAP	70	96	1
STR	70	96	4
SI_	70	96	4	96	48	1
TAP	70	144	3
STR	70	192	4
SI_	70	192	4	96	48	7
TAP	70	192	6
TAP	70	240	5
STR	70	288	0
SI_	70	288	0	96	48	4
TAP	70	288	4
TAP	70	336	1
TAP	71	0	0
TAP	71	0	2
TAP	71	48	3
TAP	71	96	5
TAP	71	144	1
TAP	71	144	7
TAP	71	192	2
TAP	71	216	0
TAP	71	240	1
TAP	71	264	7
TAP	71	288	0
TAP	71	312	6
TAP	71	336	7
TAP	72	0	0
TAP	72	0	5
TAP	72	48	3
TAP	72	48	4
TAP	72	96	2
STR	72	96	7
SCR	72	96	7	96	48	2
TAP	72	144	0
TAP	72	192	4
STR	72	192	7
SCL	72	192	7	96	48	4
TAP	72	240	6
STR	72	288	3
SI_	72	288	3	96	48	7
TAP	72	288	7
TAP	72	336	2
TAP	73	0	1
TAP	73	0	3
TAP	73	48	0
TAP	73	96	6
TAP	73	144	2
TAP	73	144	4
TAP	73	192	0
TAP	73	192	3
TAP	73	216	1
TAP	73	240	2
TAP	73	264	3
TAP	73	288	4
TAP	73	288	7
TAP	73	312	6
TAP	73	336	5
TAP	73	360	4
HLD	74	0	1	48
HLD	74	0	3	48
HLD	74	96	4	48
HLD	74	96	6	48
STR	74	192	3
SI_	74	192	3	96	48	7
TAP	74	192	4
TAP	74	240	2
TAP	74	288	3
STR	74	288	5
SI_	74	288	5	96	48	0
TAP	74	336	6
STR	75	0	2
SUR	75	0	2	96	120	4
TAP	75	0	5
TAP	75	48	1
TAP	75	96	2
TAP	75	96	7
BST	75	288	6
SCL	75	288	6	96	48	2
BRK	75	288	7
TAP	75	336	0
STR	76	0	1
SUR	76	0	1	96	48	5
TAP	76	0	6
TAP	76	48	1
TAP	76	96	0
TAP	76	96	1
TAP	76	144	7
TAP	76	192	6
TAP	76	216	3
TAP	76	240	5
TAP	76	264	4
TAP	76	288	7
TAP	76	312	0
TAP	76	336	3
TAP	76	360	2
TAP	77	0	4
TAP	77	24	1
TAP	77	48	3
TAP	77	72	2
STR	77	96	6
SI_	77	96	6	96	48	3
TAP	77	120	7
TAP	77	144	5
TAP	77	168	0
TAP	77	192	6
TAP	77	240	7
TAP	77	288	0
STR	77	288	1
SCR	77	288	1	96	48	5
TAP	77	336	7
TAP	78	0	1
STR	78	0	6
SUL	78	0	6	96	48	2
TAP	78	48	6
TAP	78	96	6
TAP	78	96	7
TAP	78	144	0
TAP	78	192	1
TAP	78	216	4
TAP	78	240	2
TAP	78	264	3
TAP	78	288	0
TAP	78	312	7
TAP	78	336	4
TAP	78	360	5
TAP	79	0	7
TAP	79	24	6
TAP	79	48	0
TAP	79	72	5
STR	79	96	2
SCL	79	96	2	96	48	7
TAP	79	120	3
TAP	79	144	1
TAP	79	168	4
BRK	79	192	2
TAP	79	288	6
TAP	79	288	7
TAP	79	336	6
TAP	80	0	4
TAP	80	0	6
TAP	80	48	6
TAP	80	96	3
TAP	80	96	5
TAP	80	144	2
TAP	80	144	4
TAP	80	192	1
TAP	80	192	3
TAP	80	240	1
TAP	80	288	0
TAP	80	288	1
TAP	80	336	1
TAP	81	0	1
TAP	81	0	4
TAP	81	48	2
TAP	81	48	5
TAP	81	96	3
TAP	81	96	6
TAP	81	144	7
TAP	81	192	1
TAP	81	216	0
TAP	81	240	2
TAP	81	264	7
TAP	81	288	3
TAP	81	312	6
TAP	81	336	4
TAP	81	360	5
TAP	82	0	3
TAP	82	12	2
TAP	82	24	1
TAP	82	36	0
TAP	82	48	7
TAP	82	60	6
TAP	82	72	5
TAP	82	84	4
TAP	82	96	3
TAP	82	108	2
TAP	82	120	1
TAP	82	132	0
TAP	82	144	7
TAP	82	156	6
TAP	82	168	5
TAP	82	180	4
STR	82	192	3
SXR	82	192	3	96	144	7
STR	82	192	7
SXR	82	192	7	96	144	3
BRK	83	96	1
BRK	83	96	5

T_REC_TAP	642
T_REC_BRK	36
T_REC_XTP	0
T_REC_HLD	80
T_REC_XHO	0
T_REC_STR	57
T_REC_BST	7
T_REC_XST	0
T_REC_TTP	0
T_REC_THO	0
T_REC_SLD	66
T_REC_ALL	888
T_NUM_TAP	699
T_NUM_BRK	43
T_NUM_HLD	80
T_NUM_SLD	66
T_NUM_ALL	888
T_JUDGE_TAP	742
T_JUDGE_HLD	143
T_JUDGE_SLD	66
T_JUDGE_ALL	951
TTM_EACHPAIRS	182
TTM_SCR_TAP	349500
TTM_SCR_BRK	111800
TTM_SCR_HLD	80000
TTM_SCR_SLD	99000
TTM_SCR_ALL	640300
TTM_SCR_S	616950
TTM_SCR_SS	636000
TTM_RAT_ACV	10067

