VERSION	0.00.00	1.03.00
FES_MODE	0
BPM_DEF	155.000	155.000	155.000	155.000
MET_DEF	4	4
RESOLUTION	384
CLK_DEF	384
COMPATIBLE_CODE	MA2

BPM	0	0	155.000
MET	0	0	4	4
MET	43	0	4	2
MET	43	192	4	4

STR	1	360	1
SCR	1	360	1	96	96	4
STR	2	360	6
SCL	2	360	6	96	96	3
STR	4	0	0
SXL	4	0	0	96	264	5
TAP	5	192	3
TAP	5	192	6
STR	5	360	6
SCL	5	360	6	96	96	3
STR	6	360	1
SCR	6	360	1	96	96	4
STR	8	0	7
SI_	8	0	7	96	96	3
TAP	8	336	2
TAP	9	0	2
TAP	9	48	4
TAP	9	96	4
TAP	9	144	3
TAP	9	192	3
TAP	9	240	5
TAP	9	288	5
BST	9	360	0
SXL	9	360	0	96	192	3
BST	9	360	7
SXR	9	360	7	96	192	4
TAP	10	360	4
TAP	10	360	6
TAP	11	168	1
TAP	11	168	3
TAP	11	360	4
TAP	11	360	6
TAP	12	96	3
TAP	12	96	4
TAP	12	168	1
TAP	12	168	3
TAP	12	360	0
TAP	12	360	2
TAP	13	48	3
TAP	13	96	3
HLD	13	168	5	96
HLD	13	168	7	96
BST	13	360	3
SCL	13	360	3	96	576	4
BST	13	360	4
SCR	13	360	4	96	576	3
TAP	16	0	3
TAP	16	48	3
TAP	16	96	4
TAP	16	144	4
TAP	16	192	3
TAP	16	216	4
TAP	16	240	3
TAP	16	264	4
TAP	16	288	3
TAP	16	312	4
TAP	16	336	3
TAP	17	0	2
HLD	17	0	5	192
TAP	17	96	1
TAP	17	192	0
BRK	17	288	0
BRK	17	288	7
HLD	18	0	2	144
HLD	18	0	3	144
STR	18	192	2
SCL	18	192	2	96	288	5
STR	18	192	3
SUL	18	192	3	96	288	4
TAP	19	288	4
TAP	19	288	5
TAP	19	336	3
TAP	19	336	6
TAP	20	0	2
STR	20	0	7
SI_	20	0	7	96	96	3
TAP	20	192	1
TAP	20	240	1
TAP	20	288	1
TAP	20	336	0
HLD	20	336	2	144
HLD	21	96	5	192
HLD	21	192	7	96
TAP	22	0	4
TAP	22	48	4
TAP	22	96	3
TAP	22	144	3
TAP	22	192	5
TAP	22	240	5
TAP	22	288	6
TAP	22	288	7
HLD	22	336	0	96
HLD	22	336	5	96
HLD	23	96	2	96
HLD	23	96	7	96
TAP	23	288	0
TAP	23	336	0
STR	24	0	6
SUR	24	0	6	96	96	3
STR	24	0	7
SCR	24	0	7	96	96	2
BRK	24	288	1
BRK	24	288	4
TAP	25	0	1
TAP	25	48	2
TAP	25	96	3
TAP	25	144	4
TAP	25	192	5
TAP	25	240	6
BRK	25	288	0
BRK	25	288	7
HLD	26	0	1	96
TAP	26	0	4
HLD	26	96	2	96
HLD	26	192	3	96
TAP	26	288	4
TAP	26	336	4
TAP	27	0	3
HLD	27	0	6	96
HLD	27	96	5	96
HLD	27	192	4	96
TAP	27	288	3
TAP	27	336	3
HLD	28	0	0	96
TAP	28	0	4
HLD	28	96	1	96
HLD	28	192	2	96
TAP	28	288	3
BRK	28	360	0
BRK	28	360	7
TAP	29	96	4
TAP	29	96	5
BRK	29	168	0
BRK	29	168	7
TAP	29	288	4
TAP	29	288	5
TAP	29	336	4
TAP	29	336	5
TAP	30	0	3
HLD	30	0	6	96
HLD	30	96	5	96
HLD	30	192	4	96
TAP	30	288	3
TAP	30	336	3
HLD	31	0	1	96
TAP	31	0	4
HLD	31	96	2	96
HLD	31	192	3	96
TAP	31	288	4
TAP	31	336	4
TAP	32	0	3
HLD	32	0	7	96
HLD	32	96	6	96
HLD	32	192	5	96
TAP	32	288	4
BST	32	360	0
SCR	32	360	0	96	216	6
BST	32	360	7
SCL	32	360	7	96	216	1
TAP	34	0	2
TAP	34	0	3
TAP	34	72	0
TAP	34	72	7
STR	34	144	4
SI_	34	144	4	96	48	0
TAP	34	144	5
TAP	34	288	7
TAP	35	0	1
TAP	35	48	1
TAP	35	96	4
TAP	35	120	3
TAP	35	144	4
TAP	35	192	2
TAP	35	216	3
TAP	35	240	2
TAP	35	288	4
TAP	35	312	3
TAP	35	336	4
TAP	36	0	2
HLD	36	0	5	96
TAP	36	96	4
TAP	36	168	0
TAP	36	168	7
TAP	36	240	2
STR	36	240	3
SCR	36	240	3	96	336	2
TAP	38	0	4
TAP	38	0	6
TAP	38	72	0
TAP	38	72	7
HLD	38	144	1	96
TAP	38	144	3
BRK	38	240	0
STR	38	288	2
SUL	38	288	2	96	288	3
STR	38	288	7
SLL	38	288	7	96	288	3
TAP	40	0	2
TAP	40	0	3
TAP	40	72	0
TAP	40	72	7
HLD	40	144	4	96
HLD	40	144	5	96
TAP	40	288	6
TAP	40	288	7
TAP	40	360	3
TAP	40	360	4
BST	41	48	0
SCL	41	48	0	96	528	1
HLD	41	48	7	816
BRK	43	0	0
BRK	43	48	0
TAP	43	96	0
TAP	43	120	7
TAP	43	168	1
TAP	43	168	6
TAP	43	216	2
TAP	43	216	5
TAP	43	264	3
TAP	43	264	4
TAP	43	312	2
TAP	43	336	3
TAP	43	360	2
TAP	44	24	1
TAP	44	24	7
TAP	44	72	0
TAP	44	72	6
TAP	44	120	5
TAP	44	144	4
TAP	44	168	5
TAP	44	216	2
TAP	44	216	4
TAP	44	264	3
TAP	44	264	5
TAP	44	312	2
TAP	44	336	3
TAP	44	360	2
TAP	45	24	3
TAP	45	24	5
TAP	45	72	4
TAP	45	72	6
TAP	45	120	5
TAP	45	144	4
TAP	45	168	5
TAP	45	216	0
TAP	45	216	6
TAP	45	264	1
TAP	45	264	7
TAP	45	312	2
TAP	45	336	3
TAP	45	360	2
TAP	46	24	1
TAP	46	24	7
TAP	46	72	0
TAP	46	72	6
TAP	46	120	5
TAP	46	144	4
TAP	46	168	5
TAP	46	216	2
TAP	46	216	4
TAP	46	264	1
TAP	46	264	3
TAP	46	312	7
TAP	46	336	0
BST	46	360	7
SI_	46	360	7	96	48	3
TAP	47	168	1
TAP	47	168	7
TAP	47	216	0
TAP	47	216	6
TAP	47	264	1
TAP	47	264	7
TAP	47	312	2
TAP	47	336	3
TAP	47	360	2
TAP	48	24	1
TAP	48	24	7
TAP	48	72	0
TAP	48	72	6
TAP	48	120	5
TAP	48	144	4
TAP	48	168	5
TAP	48	216	2
TAP	48	216	4
TAP	48	264	3
TAP	48	264	5
TAP	48	312	2
TAP	48	336	3
TAP	48	360	2
TAP	49	24	3
TAP	49	24	5
TAP	49	72	4
TAP	49	72	6
TAP	49	120	5
TAP	49	144	4
TAP	49	168	5
TAP	49	216	0
TAP	49	216	6
TAP	49	264	1
TAP	49	264	7
TAP	49	312	2
TAP	49	336	3
TAP	49	360	2
TAP	50	24	1
TAP	50	24	7
TAP	50	72	0
TAP	50	72	6
TAP	50	120	5
TAP	50	144	4
TAP	50	168	5
TAP	50	216	2
TAP	50	240	3
STR	50	264	2
SCL	50	264	2	96	72	5
BRK	51	96	1
BRK	51	96	6
TAP	51	192	3
TAP	51	192	4
TAP	51	288	0
STR	51	288	7
SI_	51	288	7	96	48	3
STR	52	0	0
SI_	52	0	0	96	48	4
STR	52	96	7
SI_	52	96	7	96	48	5
STR	52	192	0
SI_	52	192	0	96	48	3
STR	52	288	4
SI_	52	288	4	96	48	7
HLD	53	0	2	96
BRK	53	96	0
TAP	53	192	0
STR	53	192	7
SI_	53	192	7	96	48	5
STR	53	288	0
SI_	53	288	0	96	48	4
STR	54	0	7
SI_	54	0	7	96	48	3
TAP	54	96	0
TAP	54	192	3
TAP	54	192	4
TAP	54	240	2
TAP	54	240	5
TAP	54	288	1
TAP	54	288	6
TAP	54	336	0
TAP	54	336	7
BST	54	360	0
SI_	54	360	0	96	48	4
BST	54	360	7
SI_	54	360	7	96	48	3
TAP	55	192	3
TAP	55	192	4
STR	55	288	0
SI_	55	288	0	96	48	4
TAP	55	288	7
STR	56	0	7
SI_	56	0	7	96	48	3
STR	56	96	0
SI_	56	96	0	96	48	2
STR	56	192	7
SI_	56	192	7	96	48	4
STR	56	288	3
SI_	56	288	3	96	48	0
HLD	57	0	5	96
BRK	57	96	7
STR	57	192	0
SI_	57	192	0	96	48	5
STR	57	288	6
SI_	57	288	6	96	48	3
STR	58	0	1
SI_	58	0	1	96	48	4
STR	58	96	7
SI_	58	96	7	96	48	2
STR	58	192	0
SCL	58	192	0	96	192	1
BRK	59	96	7
HLD	59	192	4	288
STR	59	192	5
SCR	59	192	5	96	192	2
STR	60	192	2
SCL	60	192	2	96	192	5
HLD	60	192	3	288
HLD	61	192	5	96
TAP	61	288	4
HLD	62	0	2	96
TAP	62	96	3
HLD	62	192	5	96
HLD	62	288	4	96
HLD	63	0	3	96
TAP	63	96	2
HLD	63	192	0	288
STR	63	192	1
SCR	63	192	1	96	192	6
STR	64	192	6
SCL	64	192	6	96	192	1
HLD	64	192	7	288
HLD	65	192	1	96
TAP	65	288	0
HLD	66	0	6	96
TAP	66	96	7
TAP	66	192	0
TAP	66	288	0
TAP	67	0	0
BRK	67	96	2
BRK	67	96	7
TAP	67	192	0
TAP	67	192	5
TAP	67	240	4
TAP	67	288	2
TAP	67	288	3
TAP	67	336	1
TAP	68	0	7
TAP	68	24	0
TAP	68	48	7
TAP	68	96	1
TAP	68	144	2
TAP	68	192	3
TAP	68	192	6
TAP	68	240	5
TAP	68	288	1
TAP	68	288	4
TAP	68	336	2
TAP	69	0	4
TAP	69	24	3
TAP	69	48	4
TAP	69	96	2
TAP	69	144	3
TAP	69	192	2
TAP	69	192	7
TAP	69	240	3
TAP	69	288	4
TAP	69	288	5
TAP	69	336	6
TAP	70	0	0
TAP	70	24	7
TAP	70	48	0
TAP	70	96	6
TAP	70	144	5
TAP	70	192	1
TAP	70	192	4
TAP	70	240	2
TAP	70	288	3
TAP	70	288	6
TAP	70	336	5
TAP	71	0	3
TAP	71	24	4
TAP	71	48	3
TAP	71	96	5
TAP	71	144	4
TAP	71	192	0
TAP	71	192	5
TAP	71	240	4
TAP	71	288	2
TAP	71	288	3
TAP	71	336	1
TAP	72	0	7
TAP	72	24	0
TAP	72	48	7
TAP	72	96	1
TAP	72	144	2
TAP	72	192	3
TAP	72	192	7
TAP	72	240	5
TAP	72	288	0
TAP	72	288	4
TAP	72	336	2
TAP	73	0	4
TAP	73	24	3
TAP	73	48	4
TAP	73	96	2
TAP	73	144	3
TAP	73	192	2
TAP	73	192	7
TAP	73	240	3
TAP	73	288	4
TAP	73	288	5
TAP	73	336	6
TAP	74	0	0
TAP	74	24	7
TAP	74	48	0
TAP	74	96	6
TAP	74	144	5
TAP	74	192	0
TAP	74	192	4
TAP	74	240	2
TAP	74	288	3
TAP	74	288	7
TAP	74	336	5
TAP	75	0	3
TAP	75	24	4
TAP	75	48	3
TAP	75	96	2
TAP	75	96	5
TAP	75	144	2
TAP	75	144	5
BRK	75	192	1
BRK	75	192	6
TAP	75	288	0
STR	75	288	7
SI_	75	288	7	96	48	2
STR	76	0	0
SI_	76	0	0	96	48	5
STR	76	96	6
SI_	76	96	6	96	48	3
STR	76	192	2
SI_	76	192	2	96	48	7
STR	76	288	5
SCR	76	288	5	96	96	2
TAP	77	0	4
TAP	77	192	1
STR	77	192	6
SI_	77	192	6	96	48	3
STR	77	288	0
SI_	77	288	0	96	48	5
STR	78	0	7
SI_	78	0	7	96	48	2
STR	78	96	1
SI_	78	96	1	96	48	4
STR	78	192	5
SI_	78	192	5	96	48	0
STR	78	288	2
SCL	78	288	2	96	96	5
TAP	79	0	3
BRK	79	192	1
BRK	79	192	6
TAP	79	288	5
TAP	79	336	5
TAP	80	0	3
TAP	80	48	3
TAP	80	96	4
TAP	80	144	4
TAP	80	192	2
TAP	80	240	2
TAP	80	288	3
TAP	80	336	3
TAP	81	0	4
TAP	81	48	4
TAP	81	96	5
TAP	81	144	5
TAP	81	192	1
TAP	81	192	6
TAP	81	240	1
TAP	81	240	6
TAP	81	288	1
TAP	81	288	6
TAP	81	336	1
TAP	81	336	6
TAP	82	0	0
TAP	82	24	7
TAP	82	48	0
TAP	82	72	7
TAP	82	96	0
TAP	82	120	7
TAP	82	144	0
TAP	82	168	7
STR	82	192	0
SF_	82	192	0	96	96	4
BRK	83	96	2
BRK	83	96	6

T_REC_TAP	366
T_REC_BRK	26
T_REC_XTP	0
T_REC_HLD	48
T_REC_XHO	0
T_REC_STR	50
T_REC_BST	10
T_REC_XST	0
T_REC_TTP	0
T_REC_THO	0
T_REC_SLD	60
T_REC_ALL	560
T_NUM_TAP	416
T_NUM_BRK	36
T_NUM_HLD	48
T_NUM_SLD	60
T_NUM_ALL	560
T_JUDGE_TAP	452
T_JUDGE_HLD	134
T_JUDGE_SLD	60
T_JUDGE_ALL	646
TTM_EACHPAIRS	123
TTM_SCR_TAP	208000
TTM_SCR_BRK	93600
TTM_SCR_HLD	48000
TTM_SCR_SLD	90000
TTM_SCR_ALL	439600
TTM_SCR_S	422950
TTM_SCR_SS	436000
TTM_RAT_ACV	10082

