VERSION	0.00.00	1.03.00
FES_MODE	0
BPM_DEF	155.000	155.000	155.000	155.000
MET_DEF	4	4
RESOLUTION	384
CLK_DEF	384
COMPATIBLE_CODE	MA2

BPM	0	0	155.000
MET	0	0	4	4
MET	43	0	4	2
MET	43	192	4	4

STR	1	360	0
SCR	1	360	0	96	408	7
TAP	3	192	7
STR	4	0	7
SCL	4	0	7	96	384	0
TAP	5	192	0
HLD	5	360	6	216
TAP	6	192	7
HLD	7	0	1	192
TAP	7	192	0
HLD	8	0	5	192
TAP	8	192	4
TAP	9	0	3
TAP	9	0	4
TAP	9	96	3
TAP	9	96	4
BRK	9	192	2
BRK	9	192	5
STR	9	360	0
SF_	9	360	0	96	192	4
TAP	10	360	3
TAP	10	360	4
TAP	11	168	2
TAP	11	168	5
TAP	12	0	6
TAP	12	96	6
TAP	12	96	7
TAP	12	192	1
TAP	12	288	0
TAP	12	288	1
TAP	13	0	0
TAP	13	0	7
TAP	13	96	1
TAP	13	96	6
TAP	13	192	2
TAP	13	192	5
TAP	13	288	3
TAP	13	288	4
TAP	14	0	4
TAP	14	96	4
TAP	14	192	5
TAP	14	288	5
TAP	15	0	6
TAP	15	96	6
TAP	15	192	7
TAP	15	288	7
TAP	16	0	0
TAP	16	48	0
TAP	16	96	0
TAP	16	192	7
TAP	16	240	7
TAP	16	288	7
TAP	17	0	0
TAP	17	96	7
TAP	17	192	0
BRK	17	288	1
BRK	17	288	6
HLD	18	0	5	288
TAP	18	192	4
BRK	18	288	4
TAP	19	0	3
TAP	19	96	2
TAP	19	192	1
TAP	19	288	0
HLD	20	0	1	288
TAP	20	192	0
BRK	20	288	0
TAP	21	0	7
TAP	21	96	6
TAP	21	192	5
TAP	21	288	4
TAP	22	0	3
TAP	22	96	4
BRK	22	192	2
BRK	22	192	5
HLD	22	288	2	192
HLD	22	288	5	192
TAP	23	192	1
TAP	23	192	6
BRK	23	288	1
BRK	23	288	6
TAP	24	0	0
TAP	24	48	0
TAP	24	96	0
TAP	24	192	7
TAP	24	240	7
BST	24	288	7
SSR	24	288	7	96	192	3
BRK	25	288	2
TAP	26	0	5
TAP	26	96	4
TAP	26	96	5
TAP	26	192	2
TAP	26	288	2
TAP	26	288	3
TAP	27	0	4
TAP	27	0	5
TAP	27	96	4
TAP	27	96	5
TAP	27	192	2
TAP	27	192	3
TAP	27	288	2
TAP	27	288	3
TAP	28	0	1
TAP	28	96	0
TAP	28	96	1
TAP	28	192	6
STR	28	288	6
SCL	28	288	6	96	144	3
STR	28	288	7
SCR	28	288	7	96	144	2
TAP	29	288	2
TAP	29	288	3
TAP	30	0	2
TAP	30	0	3
TAP	30	96	3
TAP	30	96	4
STR	30	192	3
SXR	30	192	3	96	288	0
STR	30	192	4
SXL	30	192	4	96	288	7
BRK	31	288	0
BRK	31	288	7
TAP	32	0	5
TAP	32	96	4
TAP	32	96	6
TAP	32	192	2
TAP	32	288	1
TAP	32	288	3
HLD	33	0	0	192
HLD	33	0	4	192
HLD	34	0	0	72
TAP	34	144	0
STR	34	288	0
SXL	34	288	0	96	288	5
HLD	36	96	7	72
STR	36	240	7
SXR	36	240	7	96	288	2
HLD	38	0	0	72
TAP	38	144	0
TAP	38	288	7
TAP	39	0	6
TAP	39	96	5
TAP	39	192	4
TAP	39	288	4
HLD	40	0	3	72
HLD	40	0	4	72
TAP	40	144	3
TAP	40	144	4
HLD	40	288	2	72
HLD	40	288	5	72
TAP	41	48	2
TAP	41	48	5
TAP	41	192	4
TAP	41	288	3
TAP	42	0	2
TAP	42	96	1
TAP	42	192	0
TAP	42	288	0
TAP	42	288	7
BRK	43	0	1
BRK	43	0	6
TAP	43	192	0
TAP	43	192	1
TAP	43	288	2
TAP	43	288	7
TAP	44	0	6
TAP	44	0	7
TAP	44	96	0
TAP	44	96	5
TAP	44	192	6
TAP	44	192	7
TAP	44	288	0
TAP	44	288	1
TAP	45	0	6
TAP	45	0	7
TAP	45	96	0
TAP	45	96	1
TAP	45	192	2
TAP	45	192	3
TAP	45	288	1
TAP	45	288	4
TAP	46	0	4
TAP	46	0	5
TAP	46	96	3
TAP	46	96	6
TAP	46	192	4
TAP	46	192	5
TAP	46	288	2
TAP	46	288	3
TAP	47	0	4
TAP	47	0	5
TAP	47	96	2
TAP	47	96	3
TAP	47	192	6
TAP	47	192	7
TAP	47	288	0
TAP	47	288	5
TAP	48	0	1
TAP	48	0	4
TAP	48	96	2
TAP	48	96	3
TAP	48	192	4
TAP	48	192	5
TAP	48	288	3
TAP	48	288	6
TAP	49	0	2
TAP	49	0	7
TAP	49	96	0
TAP	49	96	1
TAP	49	192	0
TAP	49	192	7
TAP	49	288	1
TAP	49	288	6
TAP	50	0	2
TAP	50	0	5
TAP	50	96	3
TAP	50	96	4
HLD	50	192	2	96
HLD	50	288	3	96
HLD	51	0	4	96
BRK	51	96	5
TAP	51	192	4
TAP	51	192	5
HLD	51	288	6	96
HLD	52	0	7	96
HLD	52	96	0	96
HLD	52	192	1	288
TAP	52	288	0
TAP	53	0	0
TAP	53	96	0
TAP	53	192	1
HLD	53	288	2	96
HLD	54	0	3	96
HLD	54	96	4	96
HLD	54	192	5	288
TAP	54	288	4
TAP	55	0	4
TAP	55	96	4
TAP	55	192	4
TAP	55	192	5
HLD	55	288	6	96
HLD	56	0	7	96
HLD	56	96	0	96
HLD	56	192	1	288
TAP	56	288	0
TAP	57	0	0
TAP	57	96	0
TAP	57	192	1
TAP	57	288	2
TAP	58	0	3
TAP	58	96	4
TAP	58	192	3
TAP	58	192	4
TAP	58	288	4
TAP	58	288	5
TAP	59	0	6
TAP	59	0	7
BRK	59	96	0
HLD	59	192	5	384
HLD	60	192	4	384
HLD	61	192	3	384
HLD	62	192	2	192
TAP	63	0	3
HLD	63	192	1	384
HLD	64	192	0	384
HLD	65	192	7	384
TAP	66	192	6
TAP	66	288	5
TAP	67	0	4
BRK	67	96	3
TAP	67	192	3
TAP	67	192	4
TAP	67	288	1
TAP	67	288	2
TAP	68	0	0
TAP	68	0	7
TAP	68	96	1
TAP	68	96	6
TAP	68	192	1
TAP	68	240	1
TAP	68	288	0
TAP	68	288	1
TAP	69	0	6
TAP	69	48	6
TAP	69	96	6
TAP	69	96	7
TAP	69	192	0
TAP	69	192	7
TAP	69	288	5
TAP	69	288	6
TAP	70	0	3
TAP	70	0	4
TAP	70	96	2
TAP	70	96	5
TAP	70	192	2
TAP	70	240	2
TAP	70	288	2
TAP	70	288	3
TAP	71	0	5
TAP	71	48	5
TAP	71	96	4
TAP	71	96	5
TAP	71	192	4
TAP	71	192	5
TAP	71	288	3
TAP	71	288	6
TAP	72	0	2
TAP	72	0	7
TAP	72	96	0
TAP	72	96	1
TAP	72	192	1
TAP	72	240	1
TAP	72	288	0
TAP	72	288	1
TAP	73	0	6
TAP	73	48	6
TAP	73	96	6
TAP	73	96	7
TAP	73	192	6
TAP	73	192	7
TAP	73	288	0
TAP	73	288	5
TAP	74	0	1
TAP	74	0	4
TAP	74	96	2
TAP	74	96	3
HLD	74	192	1	96
HLD	74	288	0	96
HLD	75	0	7	96
BRK	75	96	6
TAP	75	192	6
TAP	75	192	7
HLD	75	288	5	96
HLD	76	0	4	96
HLD	76	96	3	96
HLD	76	192	2	288
TAP	76	288	3
TAP	77	0	3
TAP	77	96	3
TAP	77	192	2
HLD	77	288	1	96
HLD	78	0	0	96
HLD	78	96	7	96
HLD	78	192	6	288
TAP	78	288	7
TAP	79	0	7
TAP	79	96	7
TAP	79	192	6
TAP	79	192	7
HLD	79	288	5	96
HLD	80	0	4	96
HLD	80	96	3	96
HLD	80	192	2	288
TAP	80	288	3
TAP	81	0	3
TAP	81	96	3
TAP	81	192	4
TAP	81	240	4
TAP	81	288	3
TAP	81	336	3
TAP	82	0	4
TAP	82	48	4
TAP	82	96	3
TAP	82	144	3
HLD	82	192	3	192
HLD	82	192	4	192
BRK	83	96	2
BRK	83	96	5

T_REC_TAP	273
T_REC_BRK	21
T_REC_XTP	0
T_REC_HLD	55
T_REC_XHO	0
T_REC_STR	9
T_REC_BST	1
T_REC_XST	0
T_REC_TTP	0
T_REC_THO	0
T_REC_SLD	10
T_REC_ALL	369
T_NUM_TAP	282
T_NUM_BRK	22
T_NUM_HLD	55
T_NUM_SLD	10
T_NUM_ALL	369
T_JUDGE_TAP	304
T_JUDGE_HLD	199
T_JUDGE_SLD	10
T_JUDGE_ALL	513
TTM_EACHPAIRS	97
TTM_SCR_TAP	141000
TTM_SCR_BRK	57200
TTM_SCR_HLD	55000
TTM_SCR_SLD	15000
TTM_SCR_ALL	268200
TTM_SCR_S	258050
TTM_SCR_SS	266000
TTM_RAT_ACV	10082

