VERSION	0.00.00	1.03.00
FES_MODE	0
BPM_DEF	155.000	155.000	155.000	155.000
MET_DEF	4	4
RESOLUTION	384
CLK_DEF	384
COMPATIBLE_CODE	MA2

BPM	0	0	155.000
MET	0	0	4	4
MET	43	0	4	2
MET	43	192	4	4

HLD	2	0	0	384
HLD	4	0	1	384
TAP	6	0	2
TAP	6	192	2
TAP	7	0	3
TAP	7	192	3
TAP	8	0	4
TAP	8	192	4
TAP	9	0	5
TAP	9	192	5
TAP	10	96	6
TAP	10	192	6
TAP	10	288	6
TAP	11	96	7
TAP	11	192	7
TAP	11	288	7
TAP	12	96	0
TAP	12	192	0
TAP	12	288	0
TAP	13	96	7
TAP	13	192	7
TAP	13	288	7
TAP	14	0	0
TAP	14	96	0
TAP	14	192	0
TAP	15	0	7
TAP	15	96	7
TAP	15	192	7
TAP	16	0	1
TAP	16	96	1
TAP	16	192	0
TAP	16	192	1
TAP	17	0	6
TAP	17	96	6
TAP	17	192	6
TAP	17	192	7
STR	18	0	0
SI_	18	0	0	96	288	3
STR	20	0	7
SI_	20	0	7	96	288	4
STR	22	0	0
SI_	22	0	0	96	288	5
STR	24	0	7
SI_	24	0	7	96	288	2
TAP	26	0	0
TAP	26	96	0
TAP	26	192	0
TAP	27	0	1
TAP	27	96	1
TAP	27	192	1
TAP	28	0	2
TAP	28	96	2
TAP	28	192	2
TAP	29	0	3
TAP	29	96	3
TAP	29	192	3
TAP	29	192	4
TAP	30	0	4
TAP	30	96	4
TAP	30	192	4
TAP	31	0	5
TAP	31	96	5
TAP	31	192	5
TAP	32	0	6
TAP	32	96	6
TAP	32	192	6
TAP	33	0	7
TAP	33	96	7
TAP	33	192	0
TAP	33	192	7
HLD	34	0	0	384
HLD	34	0	1	384
TAP	36	96	7
TAP	36	192	7
TAP	36	288	7
TAP	37	288	6
TAP	37	288	7
HLD	38	0	6	384
HLD	38	0	7	384
TAP	40	0	0
TAP	40	0	1
TAP	40	96	0
TAP	40	96	1
HLD	40	192	0	288
HLD	40	192	1	288
TAP	42	0	6
TAP	42	96	6
TAP	42	192	7
TAP	42	288	7
BRK	43	0	0
BRK	43	0	7
TAP	43	192	0
TAP	43	288	0
TAP	44	0	0
TAP	44	192	1
TAP	44	288	1
TAP	45	0	0
TAP	45	0	1
TAP	45	192	2
TAP	45	288	2
TAP	46	0	2
TAP	46	192	3
TAP	46	288	3
TAP	47	0	3
TAP	47	0	4
TAP	47	192	4
TAP	47	288	4
TAP	48	0	4
TAP	48	192	5
TAP	48	288	5
TAP	49	0	4
TAP	49	0	5
TAP	49	192	6
TAP	49	288	6
TAP	50	0	6
TAP	50	192	7
TAP	50	288	7
TAP	51	0	0
TAP	51	0	7
BRK	51	192	0
TAP	51	288	0
TAP	52	0	0
TAP	52	192	6
TAP	52	192	7
TAP	52	288	6
TAP	52	288	7
TAP	53	0	6
TAP	53	0	7
TAP	53	192	5
TAP	53	288	5
TAP	54	0	5
TAP	54	192	3
TAP	54	192	4
TAP	54	288	3
TAP	54	288	4
TAP	55	0	3
TAP	55	0	4
TAP	55	192	3
TAP	55	288	3
TAP	56	0	3
TAP	56	192	2
TAP	56	192	3
TAP	56	288	2
TAP	56	288	3
TAP	57	0	2
TAP	57	0	3
TAP	57	192	1
TAP	57	288	1
TAP	58	0	1
TAP	58	192	0
TAP	58	192	7
TAP	58	288	0
TAP	58	288	7
TAP	59	0	0
TAP	59	0	7
STR	59	192	1
SI_	59	192	1	96	288	5
STR	61	192	6
SI_	61	192	6	96	288	2
STR	63	192	1
SI_	63	192	1	96	288	4
TAP	65	192	6
TAP	65	288	6
TAP	66	0	7
TAP	66	96	7
TAP	66	192	0
TAP	66	288	0
TAP	67	0	0
BRK	67	192	7
TAP	67	288	7
TAP	68	0	6
TAP	68	96	6
TAP	68	192	5
TAP	68	288	5
TAP	69	0	4
TAP	69	0	5
TAP	69	192	3
TAP	69	288	3
TAP	70	0	2
TAP	70	96	2
TAP	70	192	1
TAP	70	288	1
TAP	71	0	0
TAP	71	0	1
TAP	71	192	0
TAP	71	288	0
TAP	72	0	1
TAP	72	96	1
TAP	72	192	2
TAP	72	288	2
TAP	73	0	2
TAP	73	0	3
TAP	73	192	4
TAP	73	288	4
TAP	74	0	5
TAP	74	96	5
TAP	74	192	6
TAP	74	288	6
TAP	75	0	6
TAP	75	0	7
TAP	75	192	7
TAP	75	288	7
TAP	76	0	6
TAP	76	96	6
TAP	76	192	4
TAP	76	192	5
TAP	76	288	4
TAP	76	288	5
TAP	77	0	4
TAP	77	0	5
TAP	77	192	3
TAP	77	288	3
TAP	78	0	2
TAP	78	96	2
TAP	78	192	0
TAP	78	192	1
TAP	78	288	0
TAP	78	288	1
TAP	79	0	0
TAP	79	0	1
TAP	79	192	0
TAP	79	288	0
TAP	80	0	1
TAP	80	96	1
TAP	80	192	2
TAP	80	192	3
TAP	80	288	2
TAP	80	288	3
TAP	81	0	2
TAP	81	0	3
TAP	81	192	4
TAP	81	288	4
TAP	82	0	5
TAP	82	96	5
TAP	82	192	6
TAP	82	192	7
TAP	82	288	6
TAP	82	288	7
TAP	83	0	6
TAP	83	0	7
BRK	83	96	6
BRK	83	96	7

T_REC_TAP	214
T_REC_BRK	6
T_REC_XTP	0
T_REC_HLD	8
T_REC_XHO	0
T_REC_STR	7
T_REC_BST	0
T_REC_XST	0
T_REC_TTP	0
T_REC_THO	0
T_REC_SLD	7
T_REC_ALL	242
T_NUM_TAP	221
T_NUM_BRK	6
T_NUM_HLD	8
T_NUM_SLD	7
T_NUM_ALL	242
T_JUDGE_TAP	227
T_JUDGE_HLD	60
T_JUDGE_SLD	7
T_JUDGE_ALL	294
TTM_EACHPAIRS	44
TTM_SCR_TAP	110500
TTM_SCR_BRK	15600
TTM_SCR_HLD	8000
TTM_SCR_SLD	10500
TTM_SCR_ALL	144600
TTM_SCR_S	139700
TTM_SCR_SS	144000
TTM_RAT_ACV	10041

