VERSION	0.00.00	1.03.00
FES_MODE	0
BPM_DEF	145.000	145.000	145.000	145.000
MET_DEF	4	4
RESOLUTION	384
CLK_DEF	384
COMPATIBLE_CODE	MA2

BPM	0	0	145.000

HLD	1	0	3	288
TAP	1	0	4
TAP	1	96	4
TAP	1	192	4
TAP	1	288	4
TAP	2	0	3
TAP	2	0	4
TAP	2	48	3
TAP	2	48	4
TAP	2	96	2
TAP	2	96	5
TAP	2	144	2
TAP	2	144	5
TAP	2	192	2
TAP	2	192	5
BRK	2	288	2
BRK	2	288	6
HLD	3	0	3	72
HLD	3	72	1	72
TAP	3	144	0
HLD	3	192	7	72
HLD	3	264	5	72
TAP	3	336	4
HLD	4	0	4	72
HLD	4	72	6	72
TAP	4	144	7
TAP	4	192	0
TAP	4	192	1
TAP	4	240	2
TAP	4	240	3
TAP	4	288	2
TAP	4	288	3
HLD	5	0	4	72
HLD	5	72	6	72
TAP	5	144	7
HLD	5	192	0	72
HLD	5	264	2	72
TAP	5	336	3
TAP	6	0	4
TAP	6	48	5
TAP	6	96	3
TAP	6	144	2
TAP	6	192	1
TAP	6	192	6
TAP	6	288	2
STR	6	288	5
SCR	6	288	5	96	48	0
TAP	6	336	2
TAP	7	0	3
STR	7	96	2
SCL	7	96	2	96	48	7
TAP	7	96	5
TAP	7	144	5
TAP	7	192	4
STR	7	288	6
SI_	7	288	6	96	48	3
STR	7	288	7
SI_	7	288	7	96	48	2
STR	8	96	0
SI_	8	96	0	96	48	5
STR	8	96	1
SI_	8	96	1	96	48	4
STR	8	288	2
SCL	8	288	2	96	48	7
TAP	8	288	5
TAP	8	336	5
TAP	9	0	4
TAP	9	96	2
STR	9	96	5
SCR	9	96	5	96	48	0
TAP	9	144	2
TAP	9	192	3
STR	9	288	2
SI_	9	288	2	96	48	5
STR	9	288	4
SI_	9	288	4	96	48	7
STR	10	96	3
SI_	10	96	3	96	48	0
STR	10	96	5
SI_	10	96	5	96	48	2
TAP	10	288	2
STR	10	288	5
SCR	10	288	5	96	48	0
TAP	10	336	2
TAP	11	0	3
STR	11	96	2
SCL	11	96	2	96	48	7
TAP	11	96	5
TAP	11	144	5
TAP	11	192	4
STR	11	288	3
SI_	11	288	3	96	48	0
TAP	11	288	4
STR	12	0	5
SXL	12	0	5	96	144	0
TAP	12	96	3
TAP	12	192	3
STR	12	288	2
SI_	12	288	2	96	48	5
TAP	12	288	5
TAP	12	336	5
TAP	13	0	4
TAP	13	96	1
STR	13	96	6
SI_	13	96	6	96	48	1
TAP	13	144	1
TAP	13	192	0
TAP	13	288	3
TAP	13	288	4
TAP	14	0	1
TAP	14	0	6
TAP	14	288	3
TAP	14	288	4
TAP	15	0	0
STR	15	0	6
SCL	15	0	6	96	48	3
TAP	15	48	6
STR	15	96	2
SCL	15	96	2	96	48	7
TAP	15	144	2
STR	15	192	5
SI_	15	192	5	96	48	2
HLD	15	240	5	96
TAP	16	0	1
TAP	16	0	3
TAP	16	48	2
TAP	16	96	4
TAP	16	96	6
TAP	16	144	5
STR	16	192	0
SCR	16	192	0	96	48	3
STR	16	192	4
SCR	16	192	4	96	48	7
STR	17	0	2
SCR	17	0	2	96	48	5
TAP	17	0	6
TAP	17	48	6
TAP	17	96	7
TAP	17	144	7
TAP	17	192	1
STR	17	192	5
SCL	17	192	5	96	48	2
TAP	17	240	1
TAP	17	288	0
TAP	17	336	0
TAP	18	0	0
TAP	18	0	4
STR	18	48	1
SI_	18	48	1	96	48	6
STR	18	48	5
SI_	18	48	5	96	48	2
TAP	18	240	0
TAP	18	240	1
TAP	18	288	0
TAP	18	288	1
TAP	19	0	3
STR	19	0	5
SCR	19	0	5	96	48	0
TAP	19	48	5
STR	19	96	1
SCR	19	96	1	96	48	4
TAP	19	144	1
STR	19	192	5
SI_	19	192	5	96	48	2
HLD	19	240	5	96
TAP	20	0	1
TAP	20	0	3
TAP	20	48	2
TAP	20	96	4
TAP	20	96	6
TAP	20	144	5
STR	20	192	0
SCR	20	192	0	96	48	3
STR	20	192	4
SCR	20	192	4	96	48	7
STR	21	0	4
SI_	21	0	4	96	48	0
TAP	21	0	6
TAP	21	48	6
TAP	21	96	5
TAP	21	144	5
TAP	21	192	1
STR	21	192	3
SI_	21	192	3	96	48	7
TAP	21	240	1
TAP	21	288	2
TAP	21	336	2
STR	22	0	3
SCL	22	0	3	96	96	0
STR	22	0	4
SCR	22	0	4	96	96	7
TAP	22	240	0
TAP	22	240	1
TAP	22	288	0
TAP	22	288	1
STR	23	0	2
SI_	23	0	2	96	48	7
STR	23	0	6
SI_	23	0	6	96	48	3
TAP	23	48	2
TAP	23	48	6
TAP	23	192	0
TAP	23	192	4
TAP	23	240	0
TAP	23	240	4
TAP	23	288	1
TAP	23	288	5
TAP	24	0	4
TAP	24	0	6
TAP	24	48	5
TAP	24	96	1
TAP	24	96	3
TAP	24	144	2
STR	24	192	3
SV_	24	192	3	96	48	0
STR	24	192	7
SV_	24	192	7	96	48	4
STR	25	0	1
SCL	25	0	1	96	48	6
TAP	25	0	5
TAP	25	48	5
TAP	25	96	4
TAP	25	144	4
TAP	25	192	2
STR	25	192	6
SCR	25	192	6	96	48	1
TAP	25	240	2
TAP	25	288	3
TAP	25	336	3
STR	26	0	1
SCL	26	0	1	96	96	6
STR	26	0	5
SUR	26	0	5	96	96	2
TAP	26	240	0
TAP	26	240	1
STR	26	288	0
SCL	26	288	0	96	96	4
TAP	26	288	1
STR	27	0	4
SCL	27	0	4	96	96	0
TAP	27	96	0
TAP	27	288	6
STR	27	288	7
SCL	27	288	7	96	96	3
STR	28	0	3
SCL	28	0	3	96	96	7
TAP	28	96	7
TAP	28	288	3
TAP	28	288	4
HLD	29	0	0	288
TAP	29	0	7
HLD	29	192	4	96
TAP	30	0	6
TAP	30	0	7
STR	30	96	2
SI_	30	96	2	96	48	7
STR	30	96	3
SI_	30	96	3	96	48	7
BRK	30	288	7
TAP	31	0	2
TAP	31	0	5
TAP	31	72	3
STR	31	96	4
SCL	31	96	4	96	192	6
TAP	31	144	3
TAP	31	288	3
TAP	32	0	3
TAP	32	96	2
TAP	32	192	2
TAP	32	192	3
TAP	32	240	2
TAP	32	240	3
TAP	32	288	1
TAP	32	288	4
TAP	33	0	2
TAP	33	0	5
TAP	33	72	4
STR	33	96	3
SCL	33	96	3	96	96	0
TAP	33	144	4
TAP	33	288	6
TAP	33	336	0
TAP	33	336	7
TAP	34	0	1
TAP	34	0	6
TAP	34	48	2
TAP	34	48	5
TAP	34	96	3
TAP	34	96	4
TAP	34	144	3
TAP	34	144	4
TAP	34	192	5
TAP	34	240	6
TAP	34	240	7
TAP	34	288	6
TAP	34	288	7
STR	35	0	1
SI_	35	0	1	96	48	6
TAP	35	48	1
STR	35	96	5
SI_	35	96	5	96	48	2
TAP	35	144	5
TAP	35	192	0
HLD	35	240	0	96
TAP	35	336	1
STR	36	0	2
SI_	36	0	2	96	48	5
TAP	36	48	2
STR	36	96	1
SI_	36	96	1	96	48	6
TAP	36	144	1
TAP	36	192	5
TAP	36	240	5
TAP	36	288	3
TAP	36	288	4
STR	37	0	6
SI_	37	0	6	96	48	1
TAP	37	48	6
STR	37	96	2
SI_	37	96	2	96	48	5
TAP	37	144	2
TAP	37	192	7
HLD	37	240	7	96
TAP	37	336	6
STR	38	0	5
SI_	38	0	5	96	48	2
TAP	38	48	5
TAP	38	96	7
TAP	38	144	7
TAP	38	192	1
TAP	38	240	0
TAP	38	240	1
TAP	38	288	0
TAP	38	288	1
STR	39	0	6
SI_	39	0	6	96	48	2
TAP	39	48	6
STR	39	96	3
SI_	39	96	3	96	48	0
TAP	39	144	3
TAP	39	192	7
HLD	39	240	7	96
TAP	39	336	6
STR	40	0	5
SI_	40	0	5	96	48	1
TAP	40	48	5
STR	40	96	4
SI_	40	96	4	96	48	7
TAP	40	144	4
TAP	40	192	3
TAP	40	240	3
TAP	40	288	3
TAP	40	288	4
TAP	40	336	2
STR	41	0	1
SCL	41	0	1	96	48	6
TAP	41	0	5
TAP	41	48	5
TAP	41	96	4
TAP	41	144	4
TAP	41	192	2
STR	41	192	6
SCR	41	192	6	96	48	1
TAP	41	240	2
TAP	41	288	3
TAP	41	336	3
TAP	42	0	2
TAP	42	0	5
TAP	42	48	3
TAP	42	72	4
TAP	42	96	3
TAP	42	144	2
TAP	42	144	5
TAP	42	192	2
TAP	42	192	5
TAP	42	240	4
TAP	42	288	2
TAP	42	336	1
HLD	43	0	0	336
HLD	43	0	5	336
TAP	44	0	2
TAP	44	0	6
TAP	44	48	1
TAP	44	48	5
TAP	44	96	2
TAP	44	96	6
TAP	44	144	1
TAP	44	144	5
TAP	44	192	2
TAP	44	192	6
BRK	44	240	0
BRK	44	240	7
BRK	44	288	0
BRK	44	288	7
STR	45	0	0
SCL	45	0	0	96	48	5
STR	45	0	1
SCR	45	0	1	96	48	4
STR	45	192	6
SCL	45	192	6	96	48	3
STR	45	192	7
SCR	45	192	7	96	48	2
TAP	46	0	0
TAP	46	0	7
TAP	46	48	0
TAP	46	48	7
TAP	46	96	2
TAP	46	96	5
TAP	46	192	3
TAP	46	192	4
TAP	46	240	3
TAP	46	240	4
TAP	46	288	2
TAP	46	288	5
TAP	46	336	1
HLD	47	0	0	336
HLD	47	0	5	336
TAP	48	0	5
TAP	48	32	4
TAP	48	64	5
TAP	48	96	2
TAP	48	128	3
TAP	48	160	2
TAP	48	192	4
TAP	48	240	4
TAP	48	288	3
TAP	48	288	5
TAP	48	336	2
STR	49	0	1
SI_	49	0	1	96	48	4
STR	49	96	6
SI_	49	96	6	96	48	3
STR	49	192	0
SI_	49	192	0	96	48	4
TAP	49	288	7
TAP	49	336	7
TAP	50	0	1
TAP	50	0	6
TAP	50	288	3
TAP	50	288	4
HLD	51	0	0	1296
HLD	51	0	5	1296
TAP	54	192	4
TAP	54	240	3
TAP	54	288	2
HLD	54	288	4	1152
TAP	55	0	5
TAP	55	48	5
TAP	55	96	5
TAP	55	144	5
STR	55	192	5
SI_	55	192	5	96	48	2
TAP	55	240	5
TAP	56	0	5
TAP	56	48	5
TAP	56	96	5
TAP	56	144	5
TAP	56	192	5
TAP	56	240	5
TAP	56	288	5
TAP	57	0	5
TAP	57	96	5
TAP	57	192	5
TAP	57	288	5
TAP	58	0	2
TAP	58	0	7
TAP	58	96	3
TAP	58	96	6
TAP	58	192	4
STR	58	192	5
SI_	58	192	5	96	48	0
TAP	58	240	2
BRK	58	288	3
TAP	59	0	1
STR	59	0	7
SCL	59	0	7	96	48	4
TAP	59	48	7
STR	59	96	3
SCL	59	96	3	96	48	0
TAP	59	144	3
STR	59	192	5
SI_	59	192	5	96	48	2
HLD	59	240	5	96
TAP	60	0	0
TAP	60	0	3
TAP	60	48	1
TAP	60	96	4
TAP	60	96	7
TAP	60	144	6
STR	60	192	1
SI_	60	192	1	96	48	4
STR	60	192	5
SI_	60	192	5	96	48	0
STR	61	0	4
SUL	61	0	4	96	48	7
TAP	61	0	5
TAP	61	48	5
TAP	61	96	6
TAP	61	144	6
TAP	61	192	2
STR	61	192	3
SUR	61	192	3	96	48	0
TAP	61	240	2
TAP	61	288	1
TAP	61	336	1
TAP	62	0	2
TAP	62	0	6
STR	62	48	2
SI_	62	48	2	96	48	5
STR	62	48	6
SI_	62	48	6	96	48	1
TAP	62	240	0
TAP	62	240	1
TAP	62	288	0
TAP	62	288	1
TAP	63	0	2
STR	63	0	4
SCR	63	0	4	96	48	7
TAP	63	48	4
STR	63	96	0
SCR	63	96	0	96	48	3
TAP	63	144	0
STR	63	192	5
SI_	63	192	5	96	48	2
HLD	63	240	5	96
TAP	64	0	4
TAP	64	0	7
TAP	64	48	6
TAP	64	96	0
TAP	64	96	3
TAP	64	144	1
STR	64	192	7
SCL	64	192	7	96	48	4
TAP	64	288	3
TAP	64	360	0
STR	65	0	0
SCR	65	0	0	96	48	3
TAP	65	96	4
TAP	65	168	7
STR	65	192	7
SCL	65	192	7	96	48	4
TAP	65	288	3
BRK	66	48	7
BRK	66	96	7
BRK	66	144	7
TAP	66	240	0
TAP	66	240	1
TAP	66	288	0
TAP	66	288	1
STR	67	0	3
SI_	67	0	3	96	48	0
TAP	67	0	5
TAP	67	48	5
TAP	67	96	6
TAP	67	144	5
TAP	67	192	2
STR	67	192	4
SI_	67	192	4	96	48	7
TAP	67	240	2
TAP	67	288	1
TAP	67	336	2
STR	68	0	3
SI_	68	0	3	96	48	7
TAP	68	0	5
TAP	68	48	5
TAP	68	96	6
TAP	68	144	5
TAP	68	192	2
STR	68	192	4
SI_	68	192	4	96	48	0
TAP	68	240	2
TAP	68	288	1
TAP	68	336	2
STR	69	0	3
SCL	69	0	3	96	48	0
TAP	69	0	5
TAP	69	48	4
TAP	69	96	6
TAP	69	144	5
TAP	69	192	2
STR	69	192	4
SCR	69	192	4	96	48	7
TAP	69	240	3
TAP	69	288	1
TAP	69	336	2
STR	70	0	3
SI_	70	0	3	96	48	7
TAP	70	0	5
TAP	70	48	4
TAP	70	96	6
TAP	70	144	5
TAP	70	192	4
TAP	70	240	6
TAP	70	240	7
TAP	70	288	6
STR	70	288	7
SCR	70	288	7	96	96	3
STR	71	0	3
SCR	71	0	3	96	96	7
TAP	71	96	7
STR	71	288	0
SCR	71	288	0	96	96	4
TAP	71	288	1
STR	72	0	4
SCR	72	0	4	96	96	0
TAP	72	96	0
TAP	72	288	3
TAP	72	288	4
TAP	73	0	0
HLD	73	0	7	288
HLD	73	192	3	96
TAP	74	0	0
TAP	74	0	1
STR	74	96	4
SI_	74	96	4	96	48	0
STR	74	96	5
SI_	74	96	5	96	48	0
BRK	74	288	0
TAP	75	0	2
TAP	75	0	5
TAP	75	72	4
STR	75	96	3
SCR	75	96	3	96	144	1
TAP	75	144	4
TAP	75	288	4
TAP	76	0	4
TAP	76	96	5
TAP	76	192	4
TAP	76	192	5
TAP	76	240	4
TAP	76	240	5
TAP	76	288	3
TAP	76	288	6
TAP	77	0	3
TAP	77	0	4
TAP	77	72	3
STR	77	96	4
SCR	77	96	4	96	96	7
TAP	77	144	3
TAP	77	288	1
TAP	77	336	0
TAP	77	336	7
TAP	78	0	1
TAP	78	0	6
TAP	78	48	2
TAP	78	48	5
TAP	78	96	3
TAP	78	96	4
TAP	78	192	2
TAP	78	240	0
TAP	78	240	1
TAP	78	288	0
TAP	78	288	1
STR	79	0	1
SV_	79	0	1	96	48	4
STR	79	0	6
SI_	79	0	6	96	48	1
STR	79	192	0
SI_	79	192	0	96	48	2
STR	79	192	7
SI_	79	192	7	96	48	5
STR	80	0	0
SCR	80	0	0	96	48	2
STR	80	0	7
SCL	80	0	7	96	48	5
STR	80	192	4
SI_	80	192	4	96	48	1
TAP	80	192	6
STR	81	0	2
SCL	81	0	2	96	48	7
STR	81	0	7
SCL	81	0	7	96	48	4
STR	81	192	0
SCR	81	192	0	96	48	3
STR	81	192	5
SCR	81	192	5	96	48	0
TAP	82	0	3
TAP	82	0	4
TAP	82	48	3
TAP	82	48	4
TAP	82	96	3
TAP	82	96	4
TAP	82	144	3
TAP	82	144	4
TAP	82	192	2
TAP	82	240	0
TAP	82	240	1
TAP	82	288	0
TAP	82	288	1
HLD	83	0	2	144
HLD	83	0	7	144
HLD	83	192	0	144
HLD	83	192	5	144
HLD	84	0	2	144
HLD	84	0	7	144
HLD	84	192	0	144
HLD	84	192	5	144
TAP	85	0	2
TAP	85	0	7
TAP	85	96	4
TAP	85	120	3
TAP	85	144	4
TAP	85	192	0
TAP	85	192	5
TAP	85	288	3
TAP	85	312	4
TAP	85	336	3
TAP	86	0	2
TAP	86	0	7
TAP	86	96	4
TAP	86	120	3
TAP	86	144	4
TAP	86	192	0
TAP	86	192	5
BRK	86	288	2
BRK	86	288	6
TAP	87	0	0
TAP	87	0	5
TAP	87	48	1
TAP	87	96	2
TAP	87	96	7
TAP	87	144	6
TAP	87	192	0
TAP	87	192	5
TAP	87	240	1
TAP	87	288	2
TAP	87	288	7
TAP	87	336	6
BRK	88	0	0
BRK	88	0	5
BRK	88	96	2
BRK	88	96	7
BRK	88	192	0
BRK	88	192	5
BRK	88	288	2
BRK	88	288	7
BRK	89	0	0
BRK	89	0	5
BRK	89	96	2
BRK	89	96	7
BRK	89	192	0
BRK	89	192	5

T_REC_TAP	447
T_REC_BRK	28
T_REC_XTP	0
T_REC_HLD	37
T_REC_XHO	0
T_REC_STR	115
T_REC_BST	0
T_REC_XST	0
T_REC_TTP	0
T_REC_THO	0
T_REC_SLD	115
T_REC_ALL	742
T_NUM_TAP	562
T_NUM_BRK	28
T_NUM_HLD	37
T_NUM_SLD	115
T_NUM_ALL	742
T_JUDGE_TAP	590
T_JUDGE_HLD	186
T_JUDGE_SLD	115
T_JUDGE_ALL	891
TTM_EACHPAIRS	182
TTM_SCR_TAP	281000
TTM_SCR_BRK	72800
TTM_SCR_HLD	37000
TTM_SCR_SLD	172500
TTM_SCR_ALL	563300
TTM_SCR_S	543700
TTM_SCR_SS	560500
TTM_RAT_ACV	10049

