VERSION	0.00.00	1.03.00
FES_MODE	0
BPM_DEF	145.000	145.000	145.000	145.000
MET_DEF	4	4
RESOLUTION	384
CLK_DEF	384
COMPATIBLE_CODE	MA2

BPM	0	0	145.000

TAP	1	0	3
TAP	1	96	3
TAP	1	192	4
TAP	1	288	4
TAP	2	0	3
TAP	2	0	4
TAP	2	96	3
TAP	2	96	4
TAP	2	192	3
TAP	2	192	4
BRK	2	288	2
BRK	2	288	6
HLD	3	0	2	96
HLD	3	96	3	96
HLD	3	192	4	96
TAP	3	288	5
HLD	4	0	5	96
HLD	4	96	4	96
HLD	4	192	3	96
TAP	4	288	2
HLD	5	0	2	96
TAP	5	96	3
HLD	5	192	5	96
TAP	5	288	4
HLD	6	0	1	96
HLD	6	96	0	96
HLD	6	192	7	96
TAP	6	288	6
TAP	7	0	6
TAP	7	96	4
TAP	7	96	6
TAP	7	192	1
TAP	7	288	1
TAP	7	288	3
STR	8	0	6
SI_	8	0	6	96	48	3
STR	8	192	1
SI_	8	192	1	96	48	4
TAP	9	0	5
TAP	9	96	3
TAP	9	96	5
TAP	9	192	2
TAP	9	288	2
TAP	9	288	4
STR	10	0	0
SI_	10	0	0	96	48	4
STR	10	192	7
SI_	10	192	7	96	48	3
TAP	11	0	1
TAP	11	96	1
TAP	11	96	7
TAP	11	192	6
TAP	11	288	0
STR	11	288	6
SUL	11	288	6	96	192	3
TAP	12	288	0
TAP	12	288	7
HLD	13	0	0	96
HLD	13	96	1	96
HLD	13	192	2	96
HLD	13	288	3	96
BRK	14	0	4
STR	15	0	3
SI_	15	0	3	96	48	0
STR	15	0	5
SI_	15	0	5	96	48	0
STR	15	192	3
SI_	15	192	3	96	48	0
STR	15	192	5
SI_	15	192	5	96	48	0
STR	16	0	2
SI_	16	0	2	96	48	7
STR	16	0	4
SI_	16	0	4	96	48	7
STR	16	192	2
SI_	16	192	2	96	48	7
STR	16	192	4
SI_	16	192	4	96	48	7
TAP	17	0	4
TAP	17	0	5
TAP	17	96	0
TAP	17	96	7
TAP	17	192	2
TAP	17	192	3
TAP	17	288	0
TAP	17	288	7
HLD	18	0	6	96
TAP	18	96	7
TAP	18	192	1
TAP	18	240	0
TAP	18	240	1
TAP	18	288	0
TAP	18	288	1
STR	19	0	1
SI_	19	0	1	96	48	4
TAP	19	96	7
STR	19	192	7
SI_	19	192	7	96	48	3
TAP	19	288	0
STR	20	0	0
SI_	20	0	0	96	48	4
TAP	20	96	6
STR	20	192	6
SI_	20	192	6	96	48	3
TAP	20	288	1
HLD	21	0	1	96
HLD	21	96	3	96
HLD	21	192	4	96
STR	21	288	5
SCR	21	288	5	96	192	2
TAP	22	240	0
TAP	22	288	0
STR	23	0	1
SCR	23	0	1	96	48	4
TAP	23	96	7
STR	23	192	6
SCL	23	192	6	96	48	3
TAP	23	288	0
TAP	24	0	0
TAP	24	96	0
TAP	24	96	7
STR	24	192	0
SI_	24	192	0	96	48	4
STR	24	192	7
SI_	24	192	7	96	48	3
TAP	25	0	6
TAP	25	0	7
TAP	25	96	3
TAP	25	96	4
TAP	25	192	0
TAP	25	192	1
TAP	25	288	3
TAP	25	288	4
HLD	26	0	6	96
TAP	26	96	7
TAP	26	192	1
TAP	26	240	0
TAP	26	240	1
TAP	26	288	0
TAP	26	288	1
STR	27	0	1
SCR	27	0	1	96	96	4
STR	27	0	4
SCR	27	0	4	96	96	7
TAP	27	288	3
TAP	27	288	6
STR	28	0	3
SCL	28	0	3	96	96	0
STR	28	0	6
SCL	28	0	6	96	96	3
TAP	28	288	1
TAP	28	288	4
HLD	29	0	1	96
HLD	29	0	4	96
HLD	29	192	3	96
HLD	29	192	6	96
TAP	30	0	1
TAP	30	0	3
TAP	30	96	4
TAP	30	96	6
TAP	30	192	3
TAP	30	192	4
BRK	30	288	1
BRK	30	288	6
HLD	31	0	2	96
HLD	31	96	3	96
HLD	31	192	4	96
TAP	31	288	6
HLD	32	0	5	96
HLD	32	96	4	96
HLD	32	192	3	96
TAP	32	288	1
HLD	33	0	2	96
TAP	33	96	3
HLD	33	192	5	96
TAP	33	288	4
HLD	34	0	1	96
TAP	34	96	0
TAP	34	192	6
TAP	34	240	6
TAP	34	240	7
TAP	34	288	6
TAP	34	288	7
HLD	35	0	1	96
TAP	35	96	2
HLD	35	192	6	96
TAP	35	288	5
HLD	36	0	3	96
TAP	36	96	2
TAP	36	192	4
TAP	36	240	3
TAP	36	288	4
TAP	37	0	4
TAP	37	0	5
TAP	37	96	2
TAP	37	96	3
HLD	37	192	5	96
TAP	37	288	6
TAP	38	0	2
TAP	38	0	3
TAP	38	96	4
TAP	38	96	5
TAP	38	192	2
TAP	38	240	0
TAP	38	240	1
TAP	38	288	0
TAP	38	288	1
TAP	39	0	1
TAP	39	96	0
TAP	39	96	2
TAP	39	192	6
TAP	39	288	5
TAP	39	288	7
TAP	40	0	2
TAP	40	96	1
TAP	40	96	3
TAP	40	192	5
TAP	40	240	4
TAP	40	288	5
TAP	41	0	6
TAP	41	0	7
TAP	41	96	0
TAP	41	96	1
TAP	41	192	2
TAP	41	192	3
TAP	41	288	4
TAP	41	288	5
TAP	42	0	3
TAP	42	0	6
TAP	42	96	1
TAP	42	96	4
TAP	42	192	3
TAP	42	240	4
TAP	42	288	3
HLD	43	0	0	384
HLD	43	0	5	384
TAP	44	192	2
TAP	44	192	7
TAP	44	288	0
TAP	44	288	5
TAP	45	0	7
TAP	45	96	4
TAP	45	96	5
TAP	45	192	0
TAP	45	288	2
TAP	45	288	3
STR	46	0	0
SI_	46	0	0	96	48	4
STR	46	0	1
SI_	46	0	1	96	48	4
STR	46	192	6
SI_	46	192	6	96	48	3
STR	46	192	7
SI_	46	192	7	96	48	3
HLD	47	0	0	384
HLD	47	0	5	384
TAP	48	192	2
TAP	48	192	7
TAP	48	288	0
TAP	48	288	5
HLD	49	0	6	96
HLD	49	96	4	96
HLD	49	192	3	96
TAP	49	288	1
BRK	50	0	0
BRK	50	0	7
STR	51	0	0
SCR	51	0	0	96	288	7
TAP	52	192	0
TAP	52	192	7
STR	53	0	7
SCL	53	0	7	96	288	0
TAP	54	192	0
TAP	54	192	7
TAP	54	288	1
TAP	54	288	6
TAP	55	0	2
TAP	55	0	3
TAP	55	96	4
TAP	55	96	5
TAP	55	192	6
TAP	55	240	7
TAP	55	288	6
TAP	56	0	4
TAP	56	0	5
TAP	56	96	2
TAP	56	96	3
TAP	56	192	1
TAP	56	240	0
TAP	56	288	1
TAP	57	0	2
TAP	57	0	4
TAP	57	96	3
TAP	57	96	5
TAP	57	192	1
TAP	57	192	4
TAP	57	288	3
TAP	57	288	6
TAP	58	0	0
TAP	58	0	2
TAP	58	96	3
TAP	58	96	7
TAP	58	192	4
TAP	58	192	6
BRK	58	288	5
STR	59	0	4
SCL	59	0	4	96	48	1
STR	59	0	5
SUL	59	0	5	96	48	0
STR	59	192	4
SCL	59	192	4	96	48	1
STR	59	192	5
SUL	59	192	5	96	48	0
STR	60	0	2
SUR	60	0	2	96	48	7
STR	60	0	3
SCR	60	0	3	96	48	6
STR	60	192	2
SUR	60	192	2	96	48	7
STR	60	192	3
SCR	60	192	3	96	48	6
TAP	61	0	0
TAP	61	0	1
TAP	61	96	6
TAP	61	96	7
TAP	61	192	3
TAP	61	240	4
TAP	61	288	3
HLD	62	0	6	96
TAP	62	96	7
TAP	62	192	1
TAP	62	240	0
TAP	62	240	1
TAP	62	288	0
TAP	62	288	1
STR	63	0	1
SI_	63	0	1	96	48	4
TAP	63	96	0
STR	63	192	1
SI_	63	192	1	96	48	4
TAP	63	288	0
STR	64	0	6
SI_	64	0	6	96	48	3
TAP	64	96	7
STR	64	192	6
SI_	64	192	6	96	48	3
TAP	64	288	7
TAP	65	0	1
TAP	65	48	0
TAP	65	96	1
TAP	65	192	6
TAP	65	240	7
TAP	65	288	6
HLD	66	0	1	288
TAP	66	240	0
TAP	66	288	0
STR	67	0	2
SI_	67	0	2	96	48	7
TAP	67	96	4
STR	67	192	4
SI_	67	192	4	96	48	0
TAP	67	288	3
STR	68	0	3
SI_	68	0	3	96	48	7
TAP	68	96	5
STR	68	192	5
SI_	68	192	5	96	48	0
TAP	68	288	2
TAP	69	0	2
TAP	69	48	3
TAP	69	96	2
TAP	69	192	5
TAP	69	240	4
TAP	69	288	5
HLD	70	0	2	96
TAP	70	96	0
TAP	70	192	5
TAP	70	240	6
TAP	70	240	7
TAP	70	288	6
TAP	70	288	7
STR	71	0	3
SCL	71	0	3	96	96	0
STR	71	0	6
SCL	71	0	6	96	96	3
TAP	71	288	1
TAP	71	288	4
STR	72	0	1
SCR	72	0	1	96	96	4
STR	72	0	4
SCR	72	0	4	96	96	7
TAP	72	288	3
TAP	72	288	6
HLD	73	0	3	96
HLD	73	0	6	96
HLD	73	192	1	96
HLD	73	192	4	96
TAP	74	0	4
TAP	74	0	6
TAP	74	96	1
TAP	74	96	3
TAP	74	192	3
TAP	74	192	4
BRK	74	288	1
BRK	74	288	6
TAP	75	0	2
TAP	75	0	7
TAP	75	96	0
TAP	75	96	5
TAP	75	192	2
TAP	75	192	7
TAP	75	288	0
TAP	75	288	5
TAP	76	0	3
TAP	76	0	6
TAP	76	96	1
TAP	76	96	4
TAP	76	192	3
TAP	76	192	6
TAP	76	288	1
TAP	76	288	4
TAP	77	0	2
TAP	77	0	7
TAP	77	96	0
TAP	77	96	5
TAP	77	192	2
TAP	77	192	7
TAP	77	288	0
TAP	77	288	5
TAP	78	0	3
TAP	78	0	6
HLD	78	96	1	192
TAP	78	96	4
TAP	78	240	0
TAP	78	288	0
TAP	79	0	3
TAP	79	0	6
TAP	79	96	1
TAP	79	96	4
TAP	79	192	3
TAP	79	192	6
TAP	79	288	1
TAP	79	288	4
TAP	80	0	2
TAP	80	0	7
TAP	80	96	0
TAP	80	96	5
TAP	80	192	2
TAP	80	192	7
TAP	80	288	0
TAP	80	288	5
TAP	81	0	3
TAP	81	0	6
TAP	81	96	1
TAP	81	96	4
TAP	81	192	2
TAP	81	192	7
TAP	81	288	0
TAP	81	288	5
TAP	82	0	3
TAP	82	0	6
HLD	82	96	1	192
TAP	82	96	4
TAP	82	240	0
TAP	82	288	0
HLD	83	0	0	144
HLD	83	0	4	144
HLD	83	192	2	144
HLD	83	192	6	144
HLD	84	0	1	144
HLD	84	0	5	144
HLD	84	192	3	144
HLD	84	192	7	144
TAP	85	0	0
TAP	85	0	4
TAP	85	96	2
TAP	85	144	3
TAP	85	192	1
TAP	85	192	4
TAP	85	288	5
TAP	85	336	4
TAP	86	0	3
TAP	86	0	6
TAP	86	96	3
TAP	86	144	4
TAP	86	192	2
TAP	86	192	5
BRK	86	288	2
BRK	86	288	6
HLD	87	0	4	96
TAP	87	96	0
HLD	87	192	3	96
TAP	87	288	7
TAP	88	0	0
TAP	88	0	2
TAP	88	96	5
TAP	88	96	7
TAP	88	192	1
TAP	88	192	4
TAP	88	288	3
TAP	88	288	6
TAP	89	0	0
TAP	89	0	4
TAP	89	96	3
TAP	89	96	7
TAP	89	192	0
TAP	89	192	5

T_REC_TAP	328
T_REC_BRK	12
T_REC_XTP	0
T_REC_HLD	63
T_REC_XHO	0
T_REC_STR	52
T_REC_BST	0
T_REC_XST	0
T_REC_TTP	0
T_REC_THO	0
T_REC_SLD	52
T_REC_ALL	507
T_NUM_TAP	380
T_NUM_BRK	12
T_NUM_HLD	63
T_NUM_SLD	52
T_NUM_ALL	507
T_JUDGE_TAP	392
T_JUDGE_HLD	166
T_JUDGE_SLD	52
T_JUDGE_ALL	610
TTM_EACHPAIRS	145
TTM_SCR_TAP	190000
TTM_SCR_BRK	31200
TTM_SCR_HLD	63000
TTM_SCR_SLD	78000
TTM_SCR_ALL	362200
TTM_SCR_S	350200
TTM_SCR_SS	361000
TTM_RAT_ACV	10033

