VERSION	0.00.00	1.03.00
FES_MODE	0
BPM_DEF	145.000	145.000	145.000	145.000
MET_DEF	4	4
RESOLUTION	384
CLK_DEF	384
COMPATIBLE_CODE	MA2

BPM	0	0	145.000

TAP	1	0	5
TAP	1	96	4
TAP	1	192	2
TAP	1	288	3
TAP	2	0	4
TAP	2	96	3
TAP	2	192	4
BRK	2	288	2
BRK	2	288	5
TAP	3	0	2
TAP	3	96	3
TAP	3	192	1
TAP	3	192	4
TAP	4	0	5
TAP	4	96	4
TAP	4	192	3
TAP	4	192	6
TAP	5	0	6
TAP	5	96	7
TAP	5	192	1
TAP	5	288	0
HLD	6	0	0	96
HLD	6	0	7	96
TAP	6	192	1
TAP	6	192	6
HLD	7	0	5	192
TAP	7	96	4
TAP	7	192	4
HLD	8	0	2	192
TAP	8	96	3
TAP	8	192	3
TAP	9	0	5
TAP	9	96	5
TAP	9	192	4
TAP	9	192	6
TAP	10	0	2
TAP	10	96	2
TAP	10	192	1
TAP	10	192	3
HLD	11	0	6	192
TAP	11	96	7
TAP	11	192	7
HLD	12	0	1	192
TAP	12	96	0
TAP	12	192	0
HLD	13	0	7	192
TAP	13	96	0
TAP	13	192	0
BRK	14	0	1
BRK	14	0	6
TAP	15	0	2
TAP	15	96	2
TAP	15	192	1
TAP	15	192	3
TAP	15	288	1
TAP	15	288	3
TAP	16	0	5
TAP	16	96	5
TAP	16	192	4
TAP	16	192	6
TAP	16	288	4
TAP	16	288	6
TAP	17	0	7
TAP	17	96	6
TAP	17	192	5
TAP	17	288	4
TAP	18	0	3
TAP	18	96	2
TAP	18	192	0
TAP	18	192	1
TAP	19	0	6
TAP	19	96	6
TAP	19	192	5
TAP	19	192	7
TAP	19	288	5
TAP	19	288	7
TAP	20	0	1
TAP	20	96	1
TAP	20	192	0
TAP	20	192	2
TAP	20	288	0
TAP	20	288	2
TAP	21	0	2
TAP	21	96	3
TAP	21	192	4
TAP	21	288	5
TAP	22	0	6
TAP	22	96	7
TAP	22	192	0
TAP	22	192	1
TAP	23	0	5
TAP	23	96	5
TAP	23	192	4
TAP	23	192	6
TAP	23	288	4
TAP	23	288	6
TAP	24	0	2
TAP	24	96	2
TAP	24	192	1
TAP	24	192	3
TAP	24	288	1
TAP	24	288	3
TAP	25	0	4
TAP	25	0	5
TAP	25	96	4
TAP	25	96	5
TAP	25	192	2
TAP	25	192	3
TAP	25	288	2
TAP	25	288	3
TAP	26	0	4
TAP	26	0	5
TAP	26	96	2
TAP	26	96	3
TAP	26	192	0
TAP	26	192	1
STR	27	0	6
SI_	27	0	6	96	144	3
STR	27	0	7
SI_	27	0	7	96	144	2
STR	28	0	0
SI_	28	0	0	96	144	5
STR	28	0	1
SI_	28	0	1	96	144	4
STR	29	0	3
SI_	29	0	3	96	144	0
STR	29	0	4
SI_	29	0	4	96	144	7
TAP	30	0	0
TAP	30	0	7
TAP	30	96	0
TAP	30	96	7
BRK	30	192	1
BRK	30	192	6
TAP	31	0	0
TAP	31	0	6
TAP	31	96	0
TAP	31	96	6
TAP	31	192	1
TAP	31	192	7
TAP	31	288	1
TAP	31	288	7
TAP	32	0	0
TAP	32	0	6
TAP	32	96	0
TAP	32	96	6
TAP	32	192	1
TAP	32	192	7
TAP	33	0	6
TAP	33	0	7
TAP	33	96	6
TAP	33	96	7
TAP	33	192	0
TAP	33	192	1
TAP	33	288	0
TAP	33	288	1
TAP	34	0	6
TAP	34	0	7
TAP	34	96	6
TAP	34	96	7
TAP	34	192	0
TAP	34	192	1
HLD	35	0	5	192
TAP	35	96	4
TAP	35	192	4
HLD	36	0	2	192
TAP	36	96	3
TAP	36	192	3
TAP	37	0	5
TAP	37	96	5
TAP	37	192	4
TAP	37	192	6
TAP	38	0	2
TAP	38	96	2
TAP	38	192	1
TAP	38	192	3
HLD	39	0	6	192
TAP	39	96	7
TAP	39	192	7
HLD	40	0	1	192
TAP	40	96	0
TAP	40	192	0
TAP	41	0	6
TAP	41	96	7
TAP	41	192	1
TAP	41	288	0
STR	42	0	0
SI_	42	0	0	96	144	3
STR	42	0	7
SI_	42	0	7	96	144	4
BRK	43	0	2
BRK	43	0	3
TAP	44	0	1
TAP	44	96	0
TAP	44	192	7
TAP	44	288	6
TAP	45	0	5
TAP	45	96	4
TAP	45	96	5
TAP	45	192	2
TAP	45	288	2
TAP	45	288	3
TAP	46	0	5
TAP	46	96	4
TAP	46	96	5
TAP	46	192	3
TAP	46	192	6
BRK	47	0	4
BRK	47	0	5
STR	48	0	2
SCL	48	0	2	96	192	7
STR	48	0	3
SCR	48	0	3	96	192	6
TAP	49	0	6
TAP	49	96	7
TAP	49	192	1
TAP	49	288	0
BRK	50	0	0
BRK	50	0	7
HLD	51	0	5	576
TAP	51	192	4
TAP	52	0	4
TAP	52	192	4
HLD	53	0	2	576
TAP	53	192	3
TAP	54	0	3
TAP	54	192	3
TAP	55	0	4
TAP	55	96	4
TAP	55	192	3
TAP	55	288	3
TAP	56	0	2
TAP	56	96	2
TAP	56	192	1
TAP	56	288	1
TAP	57	0	0
TAP	57	96	7
TAP	57	192	6
TAP	57	288	5
TAP	58	0	3
TAP	58	0	4
TAP	58	96	3
TAP	58	96	4
BRK	58	192	2
BRK	58	192	5
TAP	59	0	2
TAP	59	96	1
TAP	59	96	3
TAP	59	192	2
TAP	59	288	1
TAP	59	288	3
TAP	60	0	5
TAP	60	96	4
TAP	60	96	6
TAP	60	192	5
TAP	60	288	4
TAP	60	288	6
TAP	61	0	7
TAP	61	96	6
TAP	61	192	5
TAP	61	288	4
TAP	62	0	3
TAP	62	96	2
TAP	62	192	0
TAP	62	192	1
TAP	63	0	6
TAP	63	96	5
TAP	63	96	7
TAP	63	192	6
TAP	63	288	5
TAP	63	288	7
TAP	64	0	1
TAP	64	96	0
TAP	64	96	2
TAP	64	192	1
TAP	64	288	0
TAP	64	288	2
TAP	65	0	3
TAP	65	96	4
TAP	65	192	5
TAP	65	288	6
HLD	66	0	7	96
TAP	66	96	0
TAP	66	192	0
TAP	66	192	7
TAP	67	0	2
TAP	67	96	1
TAP	67	96	3
TAP	67	192	2
TAP	67	288	1
TAP	67	288	3
TAP	68	0	5
TAP	68	96	4
TAP	68	96	6
TAP	68	192	5
TAP	68	288	4
TAP	68	288	6
TAP	69	0	2
TAP	69	0	3
TAP	69	96	2
TAP	69	96	3
TAP	69	192	4
TAP	69	192	5
TAP	69	288	4
TAP	69	288	5
TAP	70	0	2
TAP	70	0	3
TAP	70	96	4
TAP	70	96	5
TAP	70	192	6
TAP	70	192	7
STR	71	0	6
SI_	71	0	6	96	144	3
STR	71	0	7
SI_	71	0	7	96	144	2
STR	72	0	0
SI_	72	0	0	96	144	5
STR	72	0	1
SI_	72	0	1	96	144	4
STR	73	0	3
SI_	73	0	3	96	144	0
STR	73	0	4
SI_	73	0	4	96	144	7
TAP	74	0	0
TAP	74	0	7
TAP	74	96	0
TAP	74	96	7
BRK	74	192	1
BRK	74	192	6
TAP	75	0	1
TAP	75	0	7
TAP	75	96	1
TAP	75	96	7
TAP	75	192	0
TAP	75	192	6
TAP	75	288	0
TAP	75	288	6
TAP	76	0	1
TAP	76	0	7
TAP	76	96	1
TAP	76	96	7
TAP	76	192	0
TAP	76	192	6
TAP	77	0	0
TAP	77	0	1
TAP	77	96	0
TAP	77	96	1
TAP	77	192	6
TAP	77	192	7
TAP	77	288	6
TAP	77	288	7
TAP	78	0	0
TAP	78	0	1
TAP	78	96	0
TAP	78	96	1
TAP	78	192	6
TAP	78	192	7
TAP	79	0	2
TAP	79	0	4
TAP	79	96	2
TAP	79	96	4
TAP	79	192	3
TAP	79	192	5
TAP	79	288	3
TAP	79	288	5
TAP	80	0	2
TAP	80	0	4
TAP	80	96	2
TAP	80	96	4
TAP	80	192	3
TAP	80	192	5
TAP	81	0	2
TAP	81	0	3
TAP	81	96	2
TAP	81	96	3
TAP	81	192	4
TAP	81	192	5
TAP	81	288	4
TAP	81	288	5
TAP	82	0	3
TAP	82	0	4
TAP	82	96	3
TAP	82	96	4
BRK	82	192	2
BRK	82	192	5
HLD	83	0	1	192
HLD	83	192	0	192
HLD	84	0	7	192
TAP	84	192	6
HLD	85	0	5	192
HLD	85	192	4	192
HLD	86	0	3	192
TAP	86	192	2
BRK	86	288	3
BRK	86	288	4
TAP	87	0	5
TAP	87	96	4
TAP	87	192	3
TAP	87	288	2
TAP	88	0	2
TAP	88	0	3
TAP	88	96	2
TAP	88	96	3
TAP	88	192	4
TAP	88	192	5
TAP	88	288	4
TAP	88	288	5
TAP	89	0	3
TAP	89	0	4
TAP	89	96	3
TAP	89	96	4
BRK	89	192	2
BRK	89	192	5

T_REC_TAP	339
T_REC_BRK	22
T_REC_XTP	0
T_REC_HLD	20
T_REC_XHO	0
T_REC_STR	16
T_REC_BST	0
T_REC_XST	0
T_REC_TTP	0
T_REC_THO	0
T_REC_SLD	16
T_REC_ALL	413
T_NUM_TAP	355
T_NUM_BRK	22
T_NUM_HLD	20
T_NUM_SLD	16
T_NUM_ALL	413
T_JUDGE_TAP	377
T_JUDGE_HLD	90
T_JUDGE_SLD	16
T_JUDGE_ALL	483
TTM_EACHPAIRS	126
TTM_SCR_TAP	177500
TTM_SCR_BRK	57200
TTM_SCR_HLD	20000
TTM_SCR_SLD	24000
TTM_SCR_ALL	278700
TTM_SCR_S	268250
TTM_SCR_SS	276500
TTM_RAT_ACV	10079

