VERSION	0.00.00	1.03.00
FES_MODE	0
BPM_DEF	145.000	145.000	145.000	145.000
MET_DEF	4	4
RESOLUTION	384
CLK_DEF	384
COMPATIBLE_CODE	MA2

BPM	0	0	145.000

TAP	3	0	0
TAP	3	192	0
TAP	4	0	1
TAP	4	192	1
TAP	5	0	2
TAP	5	192	2
TAP	6	0	3
TAP	6	192	3
TAP	7	0	4
TAP	7	192	4
HLD	8	0	4	192
HLD	8	0	5	192
TAP	9	0	3
TAP	9	192	3
HLD	10	0	2	192
HLD	10	0	3	192
TAP	11	0	4
TAP	11	192	4
TAP	12	0	4
TAP	12	96	3
TAP	12	192	4
TAP	13	0	5
TAP	13	192	5
HLD	14	0	6	192
HLD	14	0	7	192
TAP	15	0	7
TAP	15	96	7
TAP	15	192	7
TAP	16	0	6
TAP	16	96	6
TAP	16	192	6
TAP	17	0	5
TAP	17	96	5
TAP	17	192	5
HLD	18	0	3	192
HLD	18	0	4	192
TAP	19	0	3
TAP	19	96	3
TAP	19	192	3
TAP	20	0	2
TAP	20	96	2
TAP	20	192	2
TAP	21	0	1
TAP	21	96	1
TAP	21	192	1
HLD	22	0	0	192
HLD	22	0	7	192
TAP	23	0	0
TAP	23	96	0
TAP	23	192	0
TAP	24	0	1
TAP	24	96	1
TAP	24	192	1
TAP	25	0	2
TAP	25	96	2
TAP	25	192	2
HLD	26	0	3	192
HLD	26	0	4	192
HLD	27	0	3	192
HLD	27	0	5	192
HLD	28	0	2	192
HLD	28	0	4	192
TAP	29	0	3
TAP	29	0	4
TAP	29	192	3
TAP	29	192	4
TAP	30	0	3
TAP	30	0	4
TAP	30	96	3
TAP	30	96	4
TAP	30	192	2
TAP	30	192	5
TAP	31	0	5
TAP	31	96	4
TAP	31	192	5
TAP	32	0	2
TAP	32	96	3
TAP	32	192	2
TAP	33	0	5
TAP	33	96	4
TAP	33	192	5
TAP	34	0	2
TAP	34	96	3
TAP	34	192	2
TAP	35	0	4
TAP	35	96	4
TAP	35	192	3
TAP	35	192	4
TAP	36	0	5
TAP	36	96	5
TAP	36	192	4
TAP	36	192	5
TAP	37	0	6
TAP	37	96	6
TAP	37	192	6
TAP	37	192	7
TAP	38	0	7
TAP	38	96	7
TAP	38	192	0
TAP	38	192	7
TAP	39	0	0
TAP	39	96	0
TAP	39	192	0
TAP	39	192	7
TAP	40	0	1
TAP	40	96	1
TAP	40	192	0
TAP	40	192	1
TAP	41	0	2
TAP	41	96	2
TAP	41	192	2
TAP	41	192	3
TAP	42	0	3
TAP	42	0	4
TAP	42	192	3
TAP	42	192	4
BRK	43	0	2
BRK	43	0	5
TAP	44	0	3
TAP	44	96	4
TAP	44	192	3
TAP	45	0	5
TAP	45	96	5
TAP	45	192	5
TAP	46	0	6
TAP	46	96	6
TAP	46	192	6
TAP	46	192	7
BRK	47	0	0
BRK	47	0	7
TAP	48	0	0
TAP	48	96	7
TAP	48	192	0
TAP	49	0	1
TAP	49	96	1
TAP	49	192	1
TAP	50	0	2
TAP	50	0	3
STR	51	0	3
SI_	51	0	3	96	288	0
STR	53	0	4
SI_	53	0	4	96	288	7
TAP	55	0	3
TAP	55	96	3
TAP	55	192	3
TAP	56	0	2
TAP	56	96	2
TAP	56	192	2
TAP	57	0	1
TAP	57	96	1
TAP	57	192	1
TAP	58	0	0
TAP	58	0	7
TAP	58	96	0
TAP	58	96	7
BRK	58	192	1
BRK	58	192	6
TAP	59	0	7
TAP	59	96	7
TAP	59	192	6
TAP	59	288	6
TAP	60	0	5
TAP	60	96	5
TAP	60	192	4
TAP	60	192	5
TAP	61	0	3
TAP	61	96	3
TAP	61	192	4
TAP	61	288	4
TAP	62	0	3
TAP	62	0	4
TAP	62	96	3
TAP	62	96	4
TAP	62	192	2
TAP	62	192	5
TAP	63	0	3
TAP	63	96	3
TAP	63	192	2
TAP	63	288	2
TAP	64	0	1
TAP	64	96	1
TAP	64	192	0
TAP	64	192	1
HLD	65	0	7	192
BRK	66	0	0
TAP	67	0	0
TAP	67	96	0
TAP	67	192	1
TAP	67	288	1
TAP	68	0	2
TAP	68	96	2
TAP	68	192	2
TAP	68	192	3
TAP	69	0	4
TAP	69	96	4
TAP	69	192	3
TAP	69	288	3
TAP	70	0	3
TAP	70	0	4
TAP	70	96	3
TAP	70	96	4
TAP	70	192	2
TAP	70	192	5
HLD	71	0	3	192
HLD	71	0	5	192
HLD	72	0	2	192
HLD	72	0	4	192
TAP	73	0	3
TAP	73	96	3
TAP	73	192	4
TAP	73	288	4
TAP	74	0	3
TAP	74	0	4
TAP	74	96	3
TAP	74	96	4
TAP	74	192	2
TAP	74	192	5
TAP	75	0	2
TAP	75	96	3
TAP	75	192	2
TAP	76	0	5
TAP	76	96	4
TAP	76	192	5
TAP	77	0	2
TAP	77	96	3
TAP	77	192	2
TAP	78	0	5
TAP	78	96	4
TAP	78	192	5
TAP	79	0	6
TAP	79	96	6
TAP	79	192	6
TAP	80	0	7
TAP	80	96	7
TAP	80	192	7
TAP	81	0	0
TAP	81	96	0
TAP	81	192	0
TAP	82	0	1
TAP	82	96	1
TAP	82	192	1
TAP	83	0	0
TAP	83	0	1
TAP	83	192	0
TAP	83	192	1
TAP	84	0	6
TAP	84	0	7
TAP	84	192	6
TAP	84	192	7
TAP	85	0	1
TAP	85	0	7
TAP	85	192	1
TAP	85	192	7
TAP	86	0	0
TAP	86	0	6
TAP	86	192	0
TAP	86	192	6
TAP	87	0	0
TAP	87	96	0
TAP	87	192	1
TAP	87	288	1
TAP	88	0	2
TAP	88	96	2
TAP	88	192	3
TAP	88	288	3
TAP	89	0	4
TAP	89	96	4
BRK	89	192	3
BRK	89	192	5

T_REC_TAP	235
T_REC_BRK	9
T_REC_XTP	0
T_REC_HLD	21
T_REC_XHO	0
T_REC_STR	2
T_REC_BST	0
T_REC_XST	0
T_REC_TTP	0
T_REC_THO	0
T_REC_SLD	2
T_REC_ALL	269
T_NUM_TAP	237
T_NUM_BRK	9
T_NUM_HLD	21
T_NUM_SLD	2
T_NUM_ALL	269
T_JUDGE_TAP	246
T_JUDGE_HLD	84
T_JUDGE_SLD	2
T_JUDGE_ALL	332
TTM_EACHPAIRS	52
TTM_SCR_TAP	118500
TTM_SCR_BRK	23400
TTM_SCR_HLD	21000
TTM_SCR_SLD	3000
TTM_SCR_ALL	165900
TTM_SCR_S	160050
TTM_SCR_SS	165000
TTM_RAT_ACV	10054

