VERSION	0.00.00	1.03.00
FES_MODE	0
BPM_DEF	192.000	192.000	192.000	192.000
MET_DEF	4	4
RESOLUTION	384
CLK_DEF	384
COMPATIBLE_CODE	MA2

BPM	0	0	192.000
MET	0	0	4	4
MET	54	0	4	7
MET	57	192	4	4

HLD	2	0	2	144
TAP	2	144	3
HLD	2	192	2	144
TAP	2	336	3
TAP	3	0	5
TAP	3	96	4
TAP	3	192	2
TAP	3	192	3
TAP	3	288	3
TAP	3	288	4
TAP	4	0	6
TAP	4	96	5
TAP	4	144	5
TAP	4	192	2
TAP	4	240	2
TAP	4	288	3
TAP	5	0	4
TAP	5	0	6
TAP	5	96	1
TAP	5	96	3
BST	5	192	1
SV_	5	192	1	96	48	3
BST	5	192	6
SV_	5	192	6	96	48	4
BRK	5	288	1
BRK	5	288	6
TAP	6	0	6
TAP	6	48	7
TAP	6	96	6
TAP	6	144	0
STR	6	144	5
SI_	6	144	5	96	48	2
TAP	6	240	5
TAP	6	288	1
TAP	6	336	0
TAP	7	0	7
TAP	7	48	1
TAP	7	48	6
TAP	7	96	5
TAP	7	144	4
TAP	7	192	5
TAP	7	240	4
TAP	7	288	3
TAP	7	288	6
TAP	8	0	2
TAP	8	48	3
TAP	8	96	2
STR	8	144	1
SI_	8	144	1	96	48	6
TAP	8	144	4
TAP	8	240	1
TAP	8	288	5
TAP	8	336	4
TAP	9	0	3
TAP	9	48	2
TAP	9	48	5
TAP	9	96	1
TAP	9	144	0
TAP	9	192	1
TAP	9	240	0
TAP	9	288	2
TAP	9	288	7
TAP	10	0	1
TAP	10	48	0
TAP	10	96	1
STR	10	144	2
SI_	10	144	2	96	48	5
TAP	10	144	7
TAP	10	240	2
TAP	10	288	6
TAP	10	336	7
TAP	11	0	0
TAP	11	48	1
TAP	11	48	6
TAP	11	96	2
TAP	11	144	3
TAP	11	192	2
TAP	11	240	3
TAP	11	288	1
TAP	11	288	4
TAP	12	0	5
TAP	12	48	4
TAP	12	96	5
TAP	12	144	3
STR	12	144	6
SI_	12	144	6	96	48	1
TAP	12	240	6
TAP	12	288	2
TAP	12	336	3
TAP	13	0	2
TAP	13	48	1
TAP	13	48	4
TAP	13	96	2
TAP	13	144	3
STR	13	192	1
SCR	13	192	1	96	48	4
TAP	14	0	5
HLD	14	48	5	624
TAP	14	144	2
TAP	14	192	2
TAP	14	288	4
TAP	14	336	4
TAP	15	0	4
TAP	15	96	2
TAP	15	192	3
TAP	15	240	3
TAP	15	288	3
STR	16	0	1
SI_	16	0	1	96	48	3
TAP	16	96	0
STR	16	144	0
SI_	16	144	0	96	48	4
TAP	16	240	7
STR	16	288	7
SI_	16	288	7	96	48	5
TAP	17	0	4
STR	17	48	4
SSL	17	48	4	96	144	0
TAP	18	0	2
HLD	18	48	2	624
TAP	18	144	5
TAP	18	192	5
TAP	18	288	3
TAP	19	0	4
TAP	19	48	4
TAP	19	144	3
TAP	19	192	3
TAP	19	288	5
STR	20	0	2
SCR	20	0	2	96	96	5
STR	20	96	5
SI_	20	96	5	96	96	1
STR	20	192	1
SCL	20	192	1	96	96	6
STR	20	288	6
SI_	20	288	6	96	96	2
STR	21	0	2
SCR	21	0	2	96	96	5
STR	21	96	5
SUL	21	96	5	96	96	0
TAP	21	336	6
TAP	22	0	6
HLD	22	48	6	624
TAP	22	144	4
TAP	22	192	4
TAP	22	288	1
TAP	23	0	5
TAP	23	48	5
TAP	23	144	3
TAP	23	192	3
TAP	23	288	1
STR	24	0	4
SUR	24	0	4	96	96	0
STR	24	96	0
SUR	24	96	0	96	96	4
STR	24	192	4
SUR	24	192	4	96	96	0
STR	24	288	0
SUR	24	288	0	96	96	4
STR	25	0	4
SUR	25	0	4	96	96	0
STR	25	96	0
SCL	25	96	0	96	96	4
SCR	25	96	0	96	96	4
TAP	26	0	1
HLD	26	48	1	624
TAP	26	144	3
TAP	26	192	3
TAP	26	288	6
TAP	27	0	2
TAP	27	48	2
TAP	27	144	5
TAP	27	192	5
TAP	27	288	4
STR	28	0	0
SCR	28	0	0	96	48	3
HLD	28	0	4	96
TAP	28	96	0
STR	28	192	0
SI_	28	192	0	96	48	3
HLD	28	192	5	96
TAP	28	288	0
STR	29	0	0
SI_	29	0	0	96	48	4
HLD	29	0	6	96
TAP	29	96	0
TAP	29	192	7
TAP	29	288	0
TAP	29	288	1
TAP	30	0	4
TAP	30	0	5
TAP	30	96	4
TAP	30	96	5
TAP	30	144	6
TAP	30	192	4
TAP	30	192	5
STR	30	288	4
SUR	30	288	4	96	96	3
STR	30	288	5
SCR	30	288	5	96	96	2
TAP	30	336	6
TAP	31	0	4
TAP	31	0	5
TAP	31	192	1
TAP	31	192	4
TAP	31	288	2
TAP	31	288	3
TAP	31	336	4
TAP	32	0	2
TAP	32	0	3
TAP	32	96	2
TAP	32	96	3
TAP	32	144	1
TAP	32	192	2
TAP	32	192	3
STR	32	288	2
SCL	32	288	2	96	96	5
STR	32	288	3
SUL	32	288	3	96	96	4
TAP	32	336	1
TAP	33	0	2
TAP	33	0	3
TAP	33	192	3
TAP	33	192	6
TAP	33	288	2
TAP	33	336	1
TAP	33	336	3
TAP	34	0	0
TAP	34	0	4
TAP	34	96	6
TAP	34	144	5
TAP	34	144	7
TAP	34	192	0
TAP	34	192	4
TAP	34	288	2
TAP	34	336	1
TAP	34	336	3
STR	35	0	0
SCR	35	0	0	96	48	3
STR	35	0	4
SCR	35	0	4	96	48	7
STR	35	96	0
SUL	35	96	0	96	48	4
BRK	35	288	3
TAP	36	0	4
TAP	36	0	5
TAP	36	48	4
TAP	36	48	5
TAP	36	96	2
TAP	36	96	3
TAP	36	144	2
TAP	36	144	3
TAP	36	192	4
TAP	36	216	3
TAP	36	240	4
TAP	36	264	3
TAP	36	288	5
TAP	36	312	2
TAP	36	336	6
BRK	37	48	0
BRK	37	48	7
BRK	37	144	2
BRK	37	144	5
BRK	37	192	2
BRK	37	192	5
TAP	38	0	3
TAP	38	0	6
TAP	38	48	5
TAP	38	72	4
TAP	38	96	6
TAP	38	144	2
TAP	38	192	1
TAP	38	192	4
TAP	38	240	2
TAP	38	264	3
TAP	38	288	1
TAP	38	336	5
TAP	39	0	3
TAP	39	0	4
TAP	39	48	1
TAP	39	72	0
TAP	39	96	1
TAP	39	144	7
TAP	39	192	0
STR	39	192	6
SCL	39	192	6	96	48	3
TAP	39	264	0
TAP	39	288	0
TAP	39	336	1
TAP	40	0	2
TAP	40	0	4
TAP	40	48	6
TAP	40	72	7
TAP	40	96	6
TAP	40	144	0
STR	40	192	1
SCR	40	192	1	96	48	4
TAP	40	192	7
TAP	40	264	7
TAP	40	288	7
TAP	40	336	6
BST	41	0	0
SXL	41	0	0	96	48	2
BST	41	0	7
SXR	41	0	7	96	48	5
BRK	41	96	0
BRK	41	96	7
BRK	41	192	1
BRK	41	192	6
TAP	41	288	3
TAP	41	288	4
TAP	41	336	2
TAP	42	0	1
TAP	42	0	4
TAP	42	48	2
TAP	42	72	3
TAP	42	96	1
TAP	42	144	5
TAP	42	192	3
TAP	42	192	6
TAP	42	240	5
TAP	42	264	4
TAP	42	288	6
TAP	42	336	3
TAP	43	0	2
TAP	43	0	4
TAP	43	48	6
TAP	43	72	7
STR	43	96	6
SCR	43	96	6	96	48	1
TAP	43	144	2
HLD	43	192	2	96
STR	43	288	4
SI_	43	288	4	96	48	7
TAP	43	336	4
HLD	44	0	3	96
STR	44	96	5
SI_	44	96	5	96	48	0
TAP	44	144	5
STR	44	192	2
SI_	44	192	2	96	48	7
TAP	44	240	2
TAP	44	288	4
TAP	44	336	4
TAP	45	0	2
TAP	45	0	5
TAP	45	72	6
TAP	45	96	6
TAP	45	144	7
TAP	45	192	4
BRK	45	240	0
BRK	45	288	0
STR	46	0	1
SCR	46	0	1	96	48	3
TAP	46	96	4
TAP	46	144	5
STR	46	192	6
SCL	46	192	6	96	48	4
TAP	46	288	3
TAP	46	336	2
STR	47	0	0
SCR	47	0	0	96	48	3
TAP	47	72	0
TAP	47	96	7
TAP	47	144	7
STR	47	192	0
SI_	47	192	0	96	48	3
TAP	47	264	0
TAP	47	288	6
TAP	47	336	6
HLD	48	0	2	96
HLD	48	0	5	96
TAP	48	144	3
TAP	48	144	4
TAP	48	192	2
TAP	48	264	5
STR	48	288	5
SI_	48	288	5	96	48	1
TAP	48	336	0
STR	49	0	2
SI_	49	0	2	96	48	6
TAP	49	96	5
BRK	49	192	0
BRK	49	192	7
TAP	49	288	2
STR	49	288	6
SI_	49	288	6	96	48	2
TAP	49	336	1
TAP	50	0	0
STR	50	96	1
SI_	50	96	1	96	48	5
TAP	50	96	5
TAP	50	144	6
TAP	50	192	7
TAP	50	288	2
STR	50	288	6
SI_	50	288	6	96	48	2
TAP	50	336	1
TAP	51	0	0
STR	51	96	1
SI_	51	96	1	96	48	5
TAP	51	96	5
TAP	51	144	6
TAP	51	192	7
TAP	51	288	1
TAP	51	288	6
TAP	52	0	0
TAP	52	0	7
TAP	52	96	1
TAP	52	96	6
TAP	52	144	1
TAP	52	144	6
TAP	52	192	5
TAP	52	216	2
TAP	52	240	5
TAP	52	264	2
TAP	52	288	4
TAP	52	312	3
TAP	52	336	4
STR	53	0	2
SUR	53	0	2	96	96	7
STR	53	0	5
SUL	53	0	5	96	96	0
TAP	53	288	5
TAP	53	312	2
TAP	53	336	6
TAP	53	360	1
HLD	54	0	7	96
TAP	54	48	2
TAP	54	72	3
TAP	54	96	4
HLD	54	144	0	96
TAP	54	192	5
TAP	54	216	4
TAP	54	240	3
HLD	54	288	6	96
TAP	54	336	1
TAP	54	360	2
TAP	55	0	3
HLD	55	48	5	96
TAP	55	96	2
TAP	55	120	1
TAP	55	144	0
TAP	55	192	6
TAP	55	216	1
TAP	55	240	5
TAP	55	264	2
HLD	55	288	4	96
TAP	55	336	1
TAP	55	360	0
TAP	56	0	7
HLD	56	48	3	96
TAP	56	96	6
TAP	56	120	7
TAP	56	144	0
HLD	56	192	5	96
TAP	56	240	2
TAP	56	264	1
TAP	56	288	0
TAP	56	336	6
TAP	56	336	7
TAP	57	0	4
TAP	57	0	5
TAP	57	48	2
TAP	57	48	3
TAP	57	96	0
TAP	57	96	1
TAP	57	144	1
TAP	57	144	6
BRK	57	192	0
HLD	57	192	7	96
TAP	57	240	2
TAP	57	264	3
TAP	57	288	4
HLD	57	336	0	96
BRK	57	336	7
TAP	58	0	5
TAP	58	24	4
TAP	58	48	3
BRK	58	96	0
HLD	58	96	6	96
TAP	58	144	2
TAP	58	168	3
TAP	58	192	4
TAP	58	240	2
TAP	58	240	7
TAP	58	288	3
TAP	58	288	6
TAP	58	336	0
TAP	58	336	5
TAP	59	0	1
TAP	59	0	4
TAP	59	48	2
TAP	59	48	7
TAP	59	96	3
TAP	59	96	6
TAP	59	144	0
TAP	59	144	5
TAP	59	192	3
TAP	59	216	4
TAP	59	240	3
TAP	59	264	4
TAP	59	288	2
TAP	59	312	4
TAP	59	336	2
TAP	59	360	4
TAP	60	0	1
TAP	60	24	3
TAP	60	48	1
TAP	60	72	3
TAP	60	96	0
TAP	60	120	3
TAP	60	144	0
TAP	60	168	3
BRK	60	240	0
BRK	60	240	7
BRK	60	336	1
BRK	60	336	6
BRK	61	0	1
BRK	61	0	6
TAP	61	192	4
TAP	61	192	6
TAP	61	240	4
TAP	61	240	6
TAP	62	0	1
TAP	62	0	3
TAP	62	48	1
TAP	62	48	3
TAP	62	192	1
TAP	62	192	5
TAP	62	240	1
TAP	62	240	5
TAP	62	336	2
TAP	62	336	4
TAP	63	0	2
TAP	63	0	4
TAP	63	96	1
TAP	63	96	5
TAP	63	192	2
TAP	63	192	6
TAP	63	240	2
TAP	63	240	6
TAP	64	0	1
TAP	64	0	6
TAP	64	48	1
TAP	64	48	6
STR	64	96	0
SXL	64	96	0	96	48	2
STR	64	96	7
SXR	64	96	7	96	48	5
BRK	64	192	0
BRK	64	192	7
BRK	64	288	1
BRK	64	288	6
BRK	65	0	1
BRK	65	0	6
TAP	65	48	2
TAP	65	48	5
TAP	65	96	3
TAP	65	96	4
TAP	65	192	0
TAP	65	192	5
TAP	65	240	0
TAP	65	240	5
TAP	66	0	2
TAP	66	0	7
TAP	66	48	2
TAP	66	48	7
TAP	66	192	0
TAP	66	192	4
TAP	66	240	0
TAP	66	240	4
TAP	67	0	3
TAP	67	0	7
TAP	67	48	3
TAP	67	48	7
TAP	67	192	7
TAP	67	240	7
TAP	67	288	0
TAP	67	288	6
TAP	67	336	0
TAP	67	336	6
TAP	68	0	1
TAP	68	0	5
TAP	68	48	1
TAP	68	48	5
TAP	68	96	2
TAP	68	96	4
TAP	68	144	2
TAP	68	144	4
BRK	68	192	3
STR	69	0	4
SI_	69	0	4	96	48	0
TAP	69	12	5
TAP	69	24	6
TAP	69	36	7
TAP	69	48	0
TAP	69	60	1
TAP	69	72	2
TAP	69	84	3
TAP	69	192	3
TAP	69	192	6
TAP	69	240	5
TAP	69	264	4
TAP	69	288	6
TAP	69	336	0
TAP	69	336	7
TAP	70	0	1
TAP	70	0	4
TAP	70	48	2
TAP	70	72	3
TAP	70	96	1
TAP	70	144	0
TAP	70	144	7
TAP	70	192	1
TAP	70	192	6
TAP	70	240	5
TAP	70	264	4
TAP	70	288	5
TAP	70	336	3
STR	71	0	2
SCL	71	0	2	96	48	7
TAP	71	0	4
TAP	71	72	4
TAP	71	96	4
TAP	71	144	5
STR	71	192	0
SI_	71	192	0	96	48	3
STR	71	192	4
SI_	71	192	4	96	48	7
TAP	71	288	0
TAP	71	288	4
STR	72	0	2
SI_	72	0	2	96	48	5
STR	72	0	6
SI_	72	0	6	96	48	1
TAP	72	96	2
TAP	72	96	6
BST	72	192	2
SI_	72	192	2	96	48	7
BST	72	192	6
SI_	72	192	6	96	48	3
BRK	72	288	2
BRK	72	288	6
BRK	73	0	1
BRK	73	0	5
TAP	73	96	4
TAP	73	96	5
TAP	73	144	3
TAP	73	192	1
TAP	73	192	4
TAP	73	240	2
TAP	73	264	3
TAP	73	288	1
TAP	73	336	0
TAP	73	336	7
TAP	74	0	3
TAP	74	0	6
TAP	74	48	5
TAP	74	72	4
TAP	74	96	6
TAP	74	144	0
TAP	74	144	7
TAP	74	192	2
TAP	74	192	4
TAP	74	240	2
TAP	74	264	3
STR	74	288	2
SCR	74	288	2	96	48	5
TAP	74	336	6
HLD	75	0	6	96
STR	75	96	0
SI_	75	96	0	96	48	3
TAP	75	144	0
STR	75	192	7
SI_	75	192	7	96	48	4
TAP	75	240	7
STR	75	288	1
SI_	75	288	1	96	48	4
TAP	75	336	1
STR	76	0	6
SI_	76	0	6	96	48	3
TAP	76	48	6
STR	76	96	2
SLL	76	96	2	96	96	4
TAP	76	144	2
HLD	76	192	5	144
TAP	76	336	2
TAP	77	0	1
TAP	77	0	6
BRK	77	48	0
BRK	77	96	0
STR	77	192	5
SCR	77	192	5	96	48	7
TAP	77	288	4
TAP	77	336	3
STR	78	0	2
SCL	78	0	2	96	48	0
TAP	78	96	3
TAP	78	144	5
STR	78	192	0
SI_	78	192	0	96	48	4
TAP	78	264	0
TAP	78	288	7
TAP	78	336	7
STR	79	0	4
SI_	79	0	4	96	48	0
TAP	79	72	4
TAP	79	96	5
TAP	79	144	6
HLD	79	192	1	96
HLD	79	192	6	96
TAP	79	336	3
TAP	79	336	4
TAP	80	0	2
TAP	80	72	5
STR	80	96	5
SI_	80	96	5	96	48	0
TAP	80	144	3
STR	80	192	2
SI_	80	192	2	96	48	7
TAP	80	288	5
BRK	81	0	1
BRK	81	0	6
TAP	81	96	2
STR	81	96	6
SI_	81	96	6	96	48	3
TAP	81	144	1
TAP	81	192	0
STR	81	288	1
SI_	81	288	1	96	48	4
TAP	81	288	5
TAP	81	336	6
TAP	82	0	7
STR	82	96	2
SI_	82	96	2	96	48	7
TAP	82	96	6
TAP	82	144	5
TAP	82	192	4
TAP	82	288	1
STR	82	288	5
SI_	82	288	5	96	48	0
TAP	82	336	2
TAP	83	0	3
TAP	83	96	2
TAP	83	96	5
TAP	83	144	1
TAP	83	144	6
TAP	83	192	0
TAP	83	192	7
TAP	83	288	1
TAP	83	288	6
TAP	83	336	1
TAP	83	336	6
TAP	84	0	7
TAP	84	24	0
TAP	84	48	6
TAP	84	72	1
TAP	84	96	5
TAP	84	120	2
TAP	84	144	4
STR	84	192	2
SUR	84	192	2	96	96	7
STR	84	192	5
SUL	84	192	5	96	96	0
TAP	85	96	1
TAP	85	96	6
TAP	85	144	1
TAP	85	144	6
BRK	85	192	2
BRK	85	192	5
BRK	85	240	2
BRK	85	240	5
BRK	86	96	0
TAP	86	192	3
TAP	86	192	6
TAP	86	240	5
TAP	86	264	4
TAP	86	288	6
TAP	86	336	2
TAP	87	0	1
TAP	87	0	4
TAP	87	48	2
TAP	87	72	3
TAP	87	96	1
TAP	87	144	5
TAP	87	192	3
TAP	87	192	6
TAP	87	240	5
TAP	87	264	4
TAP	87	288	7
TAP	87	336	2
TAP	87	360	3
TAP	88	0	0
TAP	88	48	5
TAP	88	72	4
TAP	88	96	7
TAP	88	144	2
TAP	88	144	5
TAP	88	192	1
TAP	88	192	4
TAP	88	240	2
TAP	88	264	3
TAP	88	288	1
TAP	88	336	5
TAP	89	0	3
TAP	89	0	6
TAP	89	48	5
TAP	89	72	4
TAP	89	96	6
TAP	89	144	1
STR	89	192	0
SI_	89	192	0	96	48	2
SI_	89	192	0	96	48	3
STR	89	288	0
SI_	89	288	0	96	48	4
SI_	89	288	0	96	48	5
TAP	90	96	1
TAP	90	96	6
TAP	90	192	2
TAP	90	192	7
TAP	90	240	1
TAP	90	264	0
TAP	90	288	2
TAP	90	336	6
TAP	91	0	0
TAP	91	0	5
TAP	91	48	6
TAP	91	72	7
TAP	91	96	5
TAP	91	144	1
TAP	91	192	2
TAP	91	192	7
TAP	91	240	1
TAP	91	264	0
TAP	91	288	3
TAP	91	336	6
TAP	91	360	7
TAP	92	0	4
TAP	92	48	1
TAP	92	72	0
TAP	92	96	3
TAP	92	144	1
TAP	92	144	6
TAP	92	192	0
TAP	92	192	5
TAP	92	240	6
TAP	92	264	7
TAP	92	288	5
TAP	92	336	1
TAP	93	0	2
TAP	93	0	7
TAP	93	48	1
TAP	93	72	0
TAP	93	96	2
TAP	93	144	5
STR	93	192	4
SI_	93	192	4	96	48	6
SI_	93	192	4	96	48	7
STR	93	288	4
SI_	93	288	4	96	48	1
BRK	94	48	0
BRK	94	96	0
TAP	94	192	1
STR	94	192	3
SI_	94	192	3	96	48	6
TAP	94	288	2
TAP	94	336	2
TAP	95	0	1
STR	95	48	0
SCR	95	48	0	96	96	3
STR	95	144	3
SCR	95	144	3	96	96	6
STR	95	240	6
SCR	95	240	6	96	96	1
TAP	95	336	3
TAP	96	0	4
TAP	96	48	5
TAP	96	96	2
TAP	96	96	6
STR	96	192	4
SI_	96	192	4	96	48	1
TAP	96	192	6
TAP	96	288	5
TAP	96	336	5
TAP	97	0	6
STR	97	48	7
SCL	97	48	7	96	96	4
STR	97	144	4
SCL	97	144	4	96	96	1
STR	97	240	1
SCL	97	240	1	96	96	6
TAP	97	336	4
TAP	98	0	3
TAP	98	48	2
TAP	98	96	1
TAP	98	96	5
HLD	98	192	1	144
STR	98	192	2
SI_	98	192	2	96	48	7
STR	99	0	5
SI_	99	0	5	96	48	0
HLD	99	0	6	144
STR	99	192	3
SF_	99	192	3	96	48	7
STR	100	0	4
SF_	100	0	4	96	48	0
TAP	100	192	0
TAP	100	192	7
TAP	100	240	0
TAP	100	240	7
TAP	100	288	1
TAP	100	288	6
TAP	100	336	1
TAP	100	336	6
TAP	101	0	2
TAP	101	0	5
TAP	101	48	2
TAP	101	48	5
TAP	101	96	3
TAP	101	96	4
TAP	101	144	3
STR	101	144	4
SCR	101	144	4	96	48	7
TAP	101	240	4
TAP	101	288	0
TAP	101	304	1
TAP	101	320	2
TAP	101	336	3
TAP	102	0	7
TAP	102	16	6
TAP	102	32	5
TAP	102	48	4
HLD	102	144	1	672
HLD	102	144	6	816
TAP	104	128	2
TAP	104	144	3
TAP	104	160	4
TAP	104	176	5

T_REC_TAP	660
T_REC_BRK	48
T_REC_XTP	0
T_REC_HLD	31
T_REC_XHO	0
T_REC_STR	92
T_REC_BST	6
T_REC_XST	0
T_REC_TTP	0
T_REC_THO	0
T_REC_SLD	102
T_REC_ALL	939
T_NUM_TAP	752
T_NUM_BRK	54
T_NUM_HLD	31
T_NUM_SLD	102
T_NUM_ALL	939
T_JUDGE_TAP	806
T_JUDGE_HLD	138
T_JUDGE_SLD	102
T_JUDGE_ALL	1046
TTM_EACHPAIRS	189
TTM_SCR_TAP	376000
TTM_SCR_BRK	140400
TTM_SCR_HLD	31000
TTM_SCR_SLD	153000
TTM_SCR_ALL	700400
TTM_SCR_S	674150
TTM_SCR_SS	695000
TTM_RAT_ACV	10077

