VERSION	0.00.00	1.03.00
FES_MODE	0
BPM_DEF	192.000	192.000	192.000	192.000
MET_DEF	4	4
RESOLUTION	384
CLK_DEF	384
COMPATIBLE_CODE	MA2

BPM	0	0	192.000
MET	0	0	4	4
MET	54	0	4	7
MET	57	192	4	4

BRK	5	288	2
BRK	5	288	5
TAP	6	0	2
STR	6	0	6
SI_	6	0	6	96	48	3
TAP	6	96	1
STR	6	144	1
SI_	6	144	1	96	48	4
TAP	6	240	6
STR	6	288	6
SI_	6	288	6	96	48	3
TAP	7	0	1
STR	7	48	1
SI_	7	48	1	96	48	4
TAP	7	144	7
TAP	7	192	7
TAP	7	288	2
TAP	7	288	3
STR	8	0	1
SI_	8	0	1	96	48	4
TAP	8	0	4
TAP	8	96	6
STR	8	144	6
SI_	8	144	6	96	48	3
TAP	8	240	1
STR	8	288	1
SI_	8	288	1	96	48	4
TAP	9	0	6
STR	9	48	6
SI_	9	48	6	96	48	3
TAP	9	144	0
TAP	9	192	0
TAP	9	288	4
TAP	9	288	5
TAP	10	0	3
STR	10	0	6
SI_	10	0	6	96	48	3
TAP	10	96	0
STR	10	144	1
SI_	10	144	1	96	48	4
TAP	10	240	7
STR	10	288	6
SI_	10	288	6	96	48	3
TAP	11	0	0
STR	11	48	1
SI_	11	48	1	96	48	4
TAP	11	144	7
TAP	11	192	6
TAP	11	288	2
TAP	11	288	3
STR	12	0	1
SI_	12	0	1	96	48	4
TAP	12	0	4
TAP	12	96	7
STR	12	144	6
SI_	12	144	6	96	48	3
TAP	12	240	0
STR	12	288	1
SI_	12	288	1	96	48	4
TAP	13	0	7
STR	13	48	6
SI_	13	48	6	96	48	3
TAP	13	144	0
TAP	13	192	1
TAP	13	288	1
TAP	13	288	5
STR	14	0	6
SCR	14	0	6	96	48	1
TAP	14	96	3
TAP	14	144	3
TAP	14	240	5
TAP	14	288	4
TAP	14	288	6
TAP	15	0	3
TAP	15	0	4
TAP	15	96	1
TAP	15	96	3
TAP	15	192	0
TAP	15	192	7
TAP	15	288	3
TAP	15	288	4
TAP	16	0	1
HLD	16	0	6	96
TAP	16	96	4
HLD	16	144	4	96
TAP	16	240	3
HLD	16	288	3	96
TAP	17	0	1
HLD	17	48	1	96
TAP	17	144	6
TAP	17	192	6
TAP	17	288	3
TAP	17	288	4
STR	18	0	1
SCL	18	0	1	96	48	6
TAP	18	96	4
TAP	18	144	4
TAP	18	240	2
TAP	18	288	1
TAP	18	288	3
TAP	19	0	3
TAP	19	0	4
TAP	19	48	3
TAP	19	48	4
TAP	19	144	0
TAP	19	144	7
TAP	19	192	0
TAP	19	192	7
TAP	19	288	3
TAP	19	288	4
STR	20	0	2
SCR	20	0	2	96	48	5
TAP	20	0	6
TAP	20	96	7
TAP	20	144	7
TAP	20	240	1
TAP	20	240	6
TAP	20	336	3
TAP	21	0	3
STR	21	48	4
SI_	21	48	4	96	48	7
TAP	21	144	0
TAP	21	192	0
TAP	21	336	2
TAP	21	336	3
TAP	22	0	2
TAP	22	0	3
TAP	22	96	4
TAP	22	96	5
TAP	22	144	4
TAP	22	144	5
TAP	22	240	4
TAP	22	240	6
TAP	22	288	4
TAP	22	288	6
TAP	23	0	1
TAP	23	0	3
STR	23	48	1
SCL	23	48	1	96	48	6
TAP	23	48	3
TAP	23	144	4
TAP	23	192	4
TAP	23	288	3
TAP	23	288	4
TAP	24	0	1
HLD	24	0	6	192
TAP	24	96	5
HLD	24	192	1	192
TAP	24	288	2
TAP	25	0	6
TAP	25	96	1
TAP	25	96	6
HLD	25	192	2	96
HLD	25	192	3	96
STR	26	0	2
SI_	26	0	2	96	48	5
TAP	26	96	6
STR	26	144	6
SI_	26	144	6	96	48	1
TAP	26	240	2
STR	26	288	2
SI_	26	288	2	96	48	5
TAP	27	0	7
HLD	27	48	7	144
TAP	27	144	0
TAP	27	192	0
TAP	27	288	2
TAP	27	288	5
STR	28	0	1
SI_	28	0	1	96	48	3
TAP	28	0	6
TAP	28	96	7
TAP	28	192	1
STR	28	192	6
SI_	28	192	6	96	48	4
TAP	28	288	0
STR	29	0	1
SI_	29	0	1	96	48	3
TAP	29	0	6
TAP	29	96	7
TAP	29	192	1
TAP	29	192	6
TAP	29	288	4
TAP	29	288	5
TAP	30	0	4
STR	30	0	5
SCR	30	0	5	96	192	2
TAP	30	96	4
TAP	30	192	4
TAP	30	288	4
TAP	31	0	2
TAP	31	0	3
TAP	31	96	2
TAP	31	96	3
TAP	31	192	1
TAP	31	192	4
TAP	31	288	2
TAP	31	288	3
STR	32	0	2
SCL	32	0	2	96	192	5
TAP	32	0	3
TAP	32	96	3
TAP	32	192	3
TAP	32	288	3
TAP	33	0	4
TAP	33	0	5
TAP	33	96	4
TAP	33	96	5
TAP	33	192	3
TAP	33	192	6
TAP	33	288	4
TAP	33	288	5
TAP	34	0	4
STR	34	0	5
SCR	34	0	5	96	192	2
TAP	34	96	4
TAP	34	192	4
TAP	34	288	4
TAP	35	0	2
TAP	35	0	3
TAP	35	96	2
TAP	35	96	3
TAP	35	192	1
TAP	35	192	4
TAP	35	288	2
TAP	35	288	5
TAP	36	0	0
TAP	36	0	7
TAP	36	48	0
TAP	36	48	7
TAP	36	96	0
TAP	36	96	7
TAP	36	144	0
TAP	36	144	7
TAP	36	192	0
TAP	36	192	7
TAP	36	240	0
TAP	36	240	7
TAP	36	288	0
TAP	36	288	7
TAP	36	336	0
TAP	36	336	7
TAP	37	48	3
TAP	37	48	4
TAP	37	144	1
TAP	37	144	6
TAP	37	192	1
TAP	37	192	6
BRK	37	288	7
STR	38	0	1
SI_	38	0	1	96	48	5
STR	38	96	6
SI_	38	96	6	96	48	2
STR	38	192	0
SI_	38	192	0	96	48	4
STR	38	288	7
SI_	38	288	7	96	48	3
STR	39	0	1
SI_	39	0	1	96	48	5
STR	39	96	6
SI_	39	96	6	96	48	2
STR	39	192	0
SI_	39	192	0	96	48	4
TAP	39	288	7
TAP	40	0	1
TAP	40	0	6
STR	40	96	3
SCL	40	96	3	96	48	0
TAP	40	96	5
TAP	40	192	4
TAP	40	288	6
TAP	40	336	6
TAP	41	0	4
TAP	41	0	5
TAP	41	96	2
TAP	41	96	6
TAP	41	192	2
TAP	41	192	6
TAP	41	288	3
TAP	41	288	4
STR	42	0	6
SI_	42	0	6	96	48	4
STR	42	0	7
SI_	42	0	7	96	48	3
STR	42	192	0
SI_	42	192	0	96	48	4
STR	42	192	1
SI_	42	192	1	96	48	3
STR	43	0	6
SI_	43	0	6	96	48	4
STR	43	0	7
SI_	43	0	7	96	48	3
STR	43	192	0
SI_	43	192	0	96	48	4
STR	43	192	1
SI_	43	192	1	96	48	3
STR	44	0	7
SCL	44	0	7	96	48	4
STR	44	96	0
SCR	44	96	0	96	48	3
STR	44	192	7
SI_	44	192	7	96	48	3
TAP	44	288	0
TAP	45	0	3
TAP	45	0	4
TAP	45	96	0
TAP	45	96	7
TAP	45	144	0
TAP	45	144	7
BRK	45	192	1
BRK	45	192	6
TAP	45	288	3
TAP	45	288	4
TAP	46	0	0
STR	46	0	1
SI_	46	0	1	96	48	4
STR	46	192	6
SI_	46	192	6	96	48	3
TAP	46	192	7
STR	47	0	0
SI_	47	0	0	96	48	4
STR	47	96	7
SI_	47	96	7	96	48	3
STR	47	192	1
SI_	47	192	1	96	48	6
STR	47	288	5
SI_	47	288	5	96	48	2
HLD	48	0	0	144
TAP	48	144	7
TAP	48	192	7
TAP	48	288	1
TAP	48	288	6
STR	49	0	3
SI_	49	0	3	96	48	7
STR	49	0	4
SI_	49	0	4	96	48	0
TAP	49	192	1
TAP	49	192	6
TAP	49	288	3
TAP	49	288	4
STR	50	0	2
SI_	50	0	2	96	48	0
STR	50	0	3
SI_	50	0	3	96	48	7
STR	50	192	4
SI_	50	192	4	96	48	0
STR	50	192	5
SI_	50	192	5	96	48	7
STR	51	0	2
SI_	51	0	2	96	48	0
STR	51	0	3
SI_	51	0	3	96	48	7
STR	51	192	4
SI_	51	192	4	96	48	0
STR	51	192	5
SI_	51	192	5	96	48	7
STR	52	0	1
SI_	52	0	1	96	48	6
STR	52	96	4
SI_	52	96	4	96	48	7
STR	52	192	0
SI_	52	192	0	96	48	3
HLD	52	288	7	96
BRK	53	0	0
TAP	53	288	3
TAP	53	288	4
STR	54	0	2
SI_	54	0	2	96	48	5
TAP	54	0	7
TAP	54	96	6
STR	54	144	6
SI_	54	144	6	96	48	1
TAP	54	240	2
STR	54	288	2
SI_	54	288	2	96	48	5
TAP	55	0	6
STR	55	48	6
SI_	55	48	6	96	48	3
TAP	55	144	2
TAP	55	192	2
TAP	55	288	0
STR	55	288	5
SI_	55	288	5	96	48	2
TAP	56	0	1
STR	56	48	1
SI_	56	48	1	96	48	6
TAP	56	144	5
STR	56	192	5
SI_	56	192	5	96	48	2
TAP	56	288	1
STR	56	336	1
SI_	56	336	1	96	48	4
TAP	57	48	5
TAP	57	96	5
STR	57	192	2
SI_	57	192	2	96	48	5
TAP	57	192	7
TAP	57	288	6
STR	57	336	6
SI_	57	336	6	96	48	1
TAP	58	48	2
STR	58	96	2
SI_	58	96	2	96	48	5
TAP	58	192	6
STR	58	240	6
SI_	58	240	6	96	48	3
TAP	58	336	2
STR	59	0	2
SI_	59	0	2	96	48	7
TAP	59	96	5
STR	59	192	0
SCR	59	192	0	96	48	3
STR	59	288	7
SCL	59	288	7	96	48	4
STR	60	0	0
SI_	60	0	0	96	48	4
TAP	60	96	7
TAP	60	144	7
TAP	60	240	1
TAP	60	240	6
TAP	60	336	1
TAP	60	336	6
TAP	61	0	1
TAP	61	0	6
TAP	61	192	1
TAP	61	192	5
TAP	62	0	2
TAP	62	0	6
TAP	62	192	1
TAP	62	192	4
TAP	63	0	3
TAP	63	0	4
TAP	63	96	1
TAP	63	96	5
TAP	63	192	2
TAP	63	192	6
TAP	64	0	1
TAP	64	0	5
TAP	64	192	3
TAP	64	192	4
TAP	64	288	1
TAP	64	288	6
TAP	65	0	1
TAP	65	0	6
TAP	65	48	1
TAP	65	48	6
TAP	65	96	1
TAP	65	96	6
TAP	65	192	2
TAP	65	192	6
TAP	66	0	1
TAP	66	0	5
TAP	66	192	3
TAP	66	192	6
TAP	67	0	0
TAP	67	0	7
TAP	67	192	3
TAP	67	192	4
TAP	67	240	3
TAP	67	240	4
TAP	67	288	2
TAP	67	288	5
TAP	67	336	2
TAP	67	336	5
TAP	68	0	1
TAP	68	0	6
TAP	68	48	1
TAP	68	48	6
TAP	68	96	0
TAP	68	96	7
BRK	68	192	0
STR	69	0	0
SI_	69	0	0	96	48	5
STR	69	0	1
SI_	69	0	1	96	48	4
STR	69	192	6
SI_	69	192	6	96	48	2
STR	69	288	1
SI_	69	288	1	96	48	5
STR	70	0	7
SI_	70	0	7	96	48	3
STR	70	96	0
SI_	70	96	0	96	48	4
STR	70	192	6
SI_	70	192	6	96	48	2
STR	70	288	1
SI_	70	288	1	96	48	5
STR	71	0	7
SI_	71	0	7	96	48	3
TAP	71	96	0
TAP	71	192	1
TAP	71	192	6
TAP	71	288	2
STR	71	288	4
SCR	71	288	4	96	48	7
TAP	72	0	3
TAP	72	96	1
TAP	72	144	1
TAP	72	192	2
TAP	72	192	3
TAP	72	288	1
TAP	72	288	5
TAP	73	0	1
TAP	73	0	5
TAP	73	96	3
TAP	73	96	4
STR	73	192	0
SI_	73	192	0	96	48	4
STR	73	192	1
SI_	73	192	1	96	48	3
STR	74	0	6
SI_	74	0	6	96	48	4
STR	74	0	7
SI_	74	0	7	96	48	3
STR	74	192	0
SI_	74	192	0	96	48	4
STR	74	192	1
SI_	74	192	1	96	48	3
STR	75	0	6
SI_	75	0	6	96	48	4
STR	75	0	7
SI_	75	0	7	96	48	3
STR	75	192	0
SCR	75	192	0	96	48	3
STR	75	288	7
SCL	75	288	7	96	48	4
STR	76	0	0
SI_	76	0	0	96	48	4
TAP	76	96	7
TAP	76	192	3
TAP	76	192	4
TAP	76	288	0
TAP	76	288	7
TAP	76	336	0
TAP	76	336	7
BRK	77	0	1
BRK	77	0	6
TAP	77	96	3
TAP	77	96	4
TAP	77	192	3
STR	77	192	5
SI_	77	192	5	96	48	2
STR	78	0	1
SI_	78	0	1	96	48	6
TAP	78	0	4
STR	78	192	0
SI_	78	192	0	96	48	3
STR	78	288	4
SI_	78	288	4	96	48	7
STR	79	0	1
SI_	79	0	1	96	48	6
STR	79	96	5
SI_	79	96	5	96	48	2
HLD	79	192	0	144
TAP	79	336	7
TAP	80	0	7
TAP	80	96	1
TAP	80	96	6
STR	80	192	3
SI_	80	192	3	96	48	0
STR	80	192	4
SI_	80	192	4	96	48	7
TAP	81	0	1
TAP	81	0	6
TAP	81	96	3
TAP	81	96	4
STR	81	192	4
SI_	81	192	4	96	48	0
STR	81	192	5
SI_	81	192	5	96	48	7
STR	82	0	2
SI_	82	0	2	96	48	0
STR	82	0	3
SI_	82	0	3	96	48	7
STR	82	192	4
SI_	82	192	4	96	48	0
STR	82	192	5
SI_	82	192	5	96	48	7
STR	83	0	2
SI_	83	0	2	96	48	0
STR	83	0	3
SI_	83	0	3	96	48	7
STR	83	192	6
SI_	83	192	6	96	48	1
STR	83	288	3
SI_	83	288	3	96	48	0
TAP	84	0	7
TAP	84	96	3
TAP	84	96	4
STR	84	192	0
SV_	84	192	0	96	48	3
STR	84	192	7
SI_	84	192	7	96	48	4
TAP	85	0	1
TAP	85	0	6
TAP	85	96	0
TAP	85	96	7
HLD	85	192	0	240
HLD	85	192	7	240
BRK	86	96	0
BRK	86	96	7
STR	86	192	2
SCR	86	192	2	96	48	5
TAP	86	288	7
TAP	86	336	7
STR	87	0	0
SI_	87	0	0	96	48	4
TAP	87	0	7
TAP	87	96	7
STR	87	192	5
SCL	87	192	5	96	48	2
TAP	87	288	0
TAP	87	336	0
TAP	88	0	0
STR	88	0	7
SI_	88	0	7	96	48	3
TAP	88	96	0
STR	88	192	2
SCR	88	192	2	96	48	5
TAP	88	288	7
TAP	88	336	7
STR	89	0	0
SI_	89	0	0	96	48	4
TAP	89	0	7
STR	89	96	5
SI_	89	96	5	96	48	1
STR	89	192	0
SCR	89	192	0	96	48	3
TAP	89	288	7
TAP	90	0	1
TAP	90	0	6
TAP	90	96	3
TAP	90	96	4
STR	90	192	5
SCL	90	192	5	96	48	2
TAP	90	288	0
TAP	90	336	0
TAP	91	0	0
STR	91	0	7
SI_	91	0	7	96	48	3
TAP	91	96	0
STR	91	192	2
SCR	91	192	2	96	48	5
TAP	91	288	7
TAP	91	336	7
STR	92	0	0
SI_	92	0	0	96	48	4
TAP	92	0	7
TAP	92	96	7
STR	92	192	5
SCL	92	192	5	96	48	2
TAP	92	288	0
TAP	92	336	0
TAP	93	0	0
STR	93	0	7
SI_	93	0	7	96	48	3
STR	93	96	2
SI_	93	96	2	96	48	6
STR	93	192	7
SCL	93	192	7	96	48	4
TAP	93	288	0
TAP	94	0	0
TAP	94	0	7
TAP	94	48	0
TAP	94	48	7
TAP	94	96	1
TAP	94	96	6
STR	94	192	2
SI_	94	192	2	96	48	5
TAP	94	288	7
STR	94	336	7
SI_	94	336	7	96	48	4
TAP	95	48	0
STR	95	144	3
SI_	95	144	3	96	48	0
STR	95	240	5
SI_	95	240	5	96	48	2
TAP	95	336	0
TAP	96	0	0
TAP	96	96	2
TAP	96	96	6
STR	96	192	5
SI_	96	192	5	96	48	2
TAP	96	288	0
STR	96	336	0
SI_	96	336	0	96	48	3
TAP	97	48	7
STR	97	144	4
SI_	97	144	4	96	48	7
STR	97	240	2
SI_	97	240	2	96	48	5
TAP	97	336	7
TAP	98	0	7
TAP	98	96	1
TAP	98	96	5
STR	98	192	3
SCL	98	192	3	96	48	0
TAP	98	192	7
TAP	98	288	5
TAP	99	0	3
STR	99	0	7
SCL	99	0	7	96	48	4
TAP	99	96	1
TAP	99	192	0
STR	99	192	4
SCR	99	192	4	96	48	7
TAP	99	288	2
STR	100	0	0
SCR	100	0	0	96	48	3
TAP	100	0	4
TAP	100	96	6
STR	100	192	6
SI_	100	192	6	96	48	1
STR	100	288	2
SI_	100	288	2	96	48	5
TAP	101	0	7
TAP	101	96	0
TAP	101	96	7
TAP	101	144	0
TAP	101	144	7
TAP	101	240	2
TAP	101	240	5
TAP	101	288	3
TAP	101	288	4
TAP	102	0	3
STR	102	48	3
SCL	102	48	3	96	624	5
TAP	102	96	4
HLD	102	144	4	744
TAP	104	120	3

T_REC_TAP	392
T_REC_BRK	11
T_REC_XTP	0
T_REC_HLD	15
T_REC_XHO	0
T_REC_STR	156
T_REC_BST	0
T_REC_XST	0
T_REC_TTP	0
T_REC_THO	0
T_REC_SLD	156
T_REC_ALL	730
T_NUM_TAP	548
T_NUM_BRK	11
T_NUM_HLD	15
T_NUM_SLD	156
T_NUM_ALL	730
T_JUDGE_TAP	559
T_JUDGE_HLD	57
T_JUDGE_SLD	156
T_JUDGE_ALL	772
TTM_EACHPAIRS	176
TTM_SCR_TAP	274000
TTM_SCR_BRK	28600
TTM_SCR_HLD	15000
TTM_SCR_SLD	234000
TTM_SCR_ALL	551600
TTM_SCR_S	534000
TTM_SCR_SS	550500
TTM_RAT_ACV	10019

