VERSION	0.00.00	1.03.00
FES_MODE	0
BPM_DEF	192.000	192.000	192.000	192.000
MET_DEF	4	4
RESOLUTION	384
CLK_DEF	384
COMPATIBLE_CODE	MA2

BPM	0	0	192.000
MET	0	0	4	4
MET	54	0	4	7
MET	57	192	4	4

TAP	2	0	4
TAP	2	0	5
TAP	2	192	2
TAP	2	192	3
TAP	3	0	5
TAP	3	96	4
TAP	3	192	3
TAP	3	288	2
TAP	4	0	2
TAP	4	0	3
TAP	4	192	4
TAP	4	192	5
TAP	5	0	2
TAP	5	0	5
TAP	5	96	3
TAP	5	96	4
TAP	5	192	1
TAP	5	192	6
BRK	5	288	0
BRK	5	288	7
TAP	6	0	2
TAP	6	0	3
TAP	6	96	0
TAP	6	192	2
TAP	6	240	2
TAP	6	288	3
TAP	7	0	0
TAP	7	48	0
TAP	7	96	6
TAP	7	192	4
TAP	7	192	5
TAP	7	288	0
TAP	7	288	7
TAP	8	0	4
TAP	8	0	5
TAP	8	96	7
TAP	8	192	5
TAP	8	240	5
TAP	8	288	4
TAP	9	0	7
TAP	9	48	7
TAP	9	96	1
TAP	9	192	2
TAP	9	192	3
TAP	9	288	0
TAP	9	288	7
TAP	10	0	2
TAP	10	0	3
TAP	10	96	0
TAP	10	192	2
TAP	10	240	2
TAP	10	288	3
TAP	11	0	0
TAP	11	48	0
TAP	11	96	6
TAP	11	192	4
TAP	11	192	5
TAP	11	288	0
TAP	11	288	7
TAP	12	0	4
TAP	12	0	5
TAP	12	96	7
TAP	12	192	5
TAP	12	240	5
TAP	12	288	4
TAP	13	0	6
TAP	13	48	6
TAP	13	96	0
TAP	13	144	0
TAP	13	192	7
TAP	13	240	7
TAP	13	288	1
TAP	14	0	2
TAP	14	0	3
TAP	14	96	2
TAP	14	192	0
TAP	14	192	1
TAP	14	288	1
TAP	15	0	2
TAP	15	0	3
TAP	15	96	2
TAP	15	192	3
TAP	15	288	4
HLD	16	0	5	96
TAP	16	96	4
HLD	16	192	6	96
TAP	16	288	7
HLD	17	0	5	96
TAP	17	96	4
TAP	17	192	3
TAP	17	288	2
TAP	18	0	2
TAP	18	0	3
TAP	18	96	2
TAP	18	192	0
TAP	18	192	1
TAP	18	288	1
TAP	19	0	2
TAP	19	0	3
TAP	19	96	2
TAP	19	192	3
TAP	19	288	4
HLD	20	0	5	96
TAP	20	96	4
HLD	20	192	6	96
TAP	20	288	7
TAP	21	0	5
TAP	21	96	4
TAP	21	192	3
TAP	21	192	6
TAP	22	0	0
TAP	22	0	1
TAP	22	96	1
TAP	22	192	2
TAP	22	192	3
TAP	22	288	2
TAP	23	0	0
TAP	23	0	1
TAP	23	96	1
TAP	23	192	0
TAP	23	288	7
HLD	24	0	6	96
TAP	24	96	7
HLD	24	192	5	96
TAP	24	288	4
HLD	25	0	6	96
TAP	25	96	7
TAP	25	192	6
TAP	25	192	7
TAP	26	0	0
TAP	26	0	1
TAP	26	96	1
TAP	26	192	2
TAP	26	192	3
TAP	26	288	2
TAP	27	0	0
TAP	27	0	1
TAP	27	96	1
TAP	27	192	0
TAP	27	288	7
HLD	28	0	6	96
TAP	28	96	5
HLD	28	192	5	96
TAP	28	288	4
HLD	29	0	4	96
TAP	29	96	3
TAP	29	192	3
TAP	29	288	3
TAP	29	288	4
STR	30	0	4
SI_	30	0	4	96	72	0
TAP	30	0	5
STR	30	192	5
SI_	30	192	5	96	72	7
TAP	31	0	4
TAP	31	96	5
TAP	31	192	3
TAP	31	192	6
TAP	32	0	2
STR	32	0	3
SI_	32	0	3	96	72	7
STR	32	192	2
SI_	32	192	2	96	72	0
TAP	33	0	3
TAP	33	96	2
TAP	33	192	1
TAP	33	192	4
TAP	34	0	6
STR	34	0	7
SI_	34	0	7	96	72	3
STR	34	192	6
SI_	34	192	6	96	72	4
TAP	35	0	0
TAP	35	96	7
TAP	35	192	1
TAP	35	192	6
TAP	35	288	0
TAP	35	288	7
TAP	36	0	0
TAP	36	48	7
TAP	36	96	0
TAP	36	144	7
TAP	36	192	0
TAP	36	240	7
TAP	36	288	0
TAP	36	336	7
TAP	37	48	1
TAP	37	48	6
BRK	37	144	0
BRK	37	144	7
BRK	37	192	0
BRK	37	192	7
TAP	38	0	0
TAP	38	0	7
TAP	38	96	1
TAP	38	144	0
TAP	38	192	2
TAP	38	192	7
TAP	38	288	6
TAP	38	336	7
TAP	39	0	0
TAP	39	0	5
TAP	39	96	1
TAP	39	144	0
TAP	39	192	2
TAP	39	192	7
TAP	39	288	0
TAP	39	288	7
TAP	40	0	1
TAP	40	0	6
TAP	40	96	4
TAP	40	96	6
TAP	40	192	1
TAP	40	192	3
TAP	40	288	1
TAP	40	288	6
TAP	41	0	0
STR	41	0	7
SI_	41	0	7	96	48	4
STR	41	96	0
SI_	41	96	0	96	48	3
BRK	41	192	7
TAP	42	0	0
TAP	42	0	7
TAP	42	96	6
TAP	42	144	7
TAP	42	192	0
TAP	42	192	5
TAP	42	288	1
TAP	42	336	0
TAP	43	0	2
TAP	43	0	7
TAP	43	96	6
TAP	43	144	7
TAP	43	192	0
TAP	43	192	5
TAP	43	288	0
TAP	43	288	7
TAP	44	0	1
TAP	44	0	6
TAP	44	96	3
TAP	44	96	4
TAP	44	192	6
TAP	44	240	7
TAP	44	288	0
STR	45	0	0
SI_	45	0	0	96	48	5
STR	45	0	1
SI_	45	0	1	96	48	4
BRK	45	192	3
BRK	45	192	6
STR	46	0	1
SI_	46	0	1	96	48	4
TAP	46	96	5
STR	46	192	6
SI_	46	192	6	96	48	3
TAP	46	288	2
STR	47	0	0
SI_	47	0	0	96	48	4
TAP	47	96	5
STR	47	192	7
SI_	47	192	7	96	48	3
TAP	47	288	2
TAP	48	0	0
TAP	48	96	7
TAP	48	192	4
TAP	48	192	5
TAP	48	288	2
TAP	48	288	3
HLD	49	0	1	96
TAP	49	0	6
TAP	49	96	0
BRK	49	192	2
BRK	49	192	7
STR	50	0	0
SI_	50	0	0	96	48	4
STR	50	0	1
SI_	50	0	1	96	48	3
STR	50	192	6
SI_	50	192	6	96	48	4
STR	50	192	7
SI_	50	192	7	96	48	3
STR	51	0	0
SI_	51	0	0	96	48	4
STR	51	0	1
SI_	51	0	1	96	48	3
STR	51	192	6
SI_	51	192	6	96	48	4
STR	51	192	7
SI_	51	192	7	96	48	3
TAP	52	0	1
TAP	52	96	4
TAP	52	96	6
TAP	52	192	3
TAP	52	240	4
TAP	52	288	2
TAP	52	288	5
STR	53	0	0
SI_	53	0	0	96	48	3
STR	53	0	7
SI_	53	0	7	96	48	4
BRK	53	192	2
BRK	53	192	5
TAP	54	0	0
HLD	54	0	1	144
HLD	54	144	3	144
HLD	54	288	4	144
HLD	55	48	6	144
TAP	55	192	7
HLD	55	288	6	144
TAP	55	288	7
HLD	56	48	4	144
HLD	56	192	3	144
HLD	56	336	1	144
TAP	57	96	0
HLD	57	192	0	144
TAP	57	192	7
HLD	57	336	2	144
HLD	58	96	4	144
HLD	58	240	6	144
TAP	59	0	7
STR	59	96	0
SCR	59	96	0	96	288	5
TAP	59	96	5
BRK	60	240	0
BRK	60	240	7
BRK	60	336	1
BRK	60	336	6
BRK	61	0	1
BRK	61	0	6
TAP	61	192	2
TAP	61	192	3
TAP	62	0	4
TAP	62	0	5
TAP	62	192	1
TAP	62	192	2
TAP	63	0	5
TAP	63	0	6
TAP	63	96	7
TAP	63	144	0
TAP	63	192	0
TAP	63	192	7
TAP	64	0	2
TAP	64	0	5
TAP	64	96	1
TAP	64	96	6
STR	64	192	0
SI_	64	192	0	96	48	3
TAP	64	192	7
STR	64	288	7
SI_	64	288	7	96	48	4
BRK	65	0	0
TAP	65	192	4
TAP	65	192	5
TAP	66	0	2
TAP	66	0	3
TAP	66	192	5
TAP	66	192	6
TAP	67	0	1
TAP	67	0	2
TAP	67	192	6
TAP	67	288	5
TAP	68	0	4
STR	68	96	3
SI_	68	96	3	96	72	7
BRK	69	0	0
BRK	69	0	6
TAP	69	192	0
TAP	69	192	7
TAP	69	288	6
TAP	69	336	7
TAP	70	0	0
TAP	70	0	4
TAP	70	96	1
TAP	70	144	0
TAP	70	192	3
TAP	70	192	7
TAP	70	288	6
TAP	70	336	7
TAP	71	0	0
TAP	71	0	4
TAP	71	96	0
TAP	71	96	7
TAP	71	192	2
TAP	71	192	5
TAP	71	288	1
TAP	71	288	4
TAP	72	0	3
TAP	72	0	6
TAP	72	96	1
TAP	72	96	6
STR	72	192	0
SI_	72	192	0	96	48	3
TAP	72	192	7
STR	72	288	7
SI_	72	288	7	96	48	4
BRK	73	0	0
TAP	73	192	0
TAP	73	192	7
TAP	73	288	1
TAP	73	336	0
TAP	74	0	3
TAP	74	0	7
TAP	74	96	6
TAP	74	144	7
TAP	74	192	0
TAP	74	192	4
TAP	74	288	1
TAP	74	336	0
TAP	75	0	3
TAP	75	0	7
TAP	75	96	0
TAP	75	96	7
TAP	75	192	2
TAP	75	192	5
TAP	75	288	3
TAP	75	288	4
TAP	76	0	1
TAP	76	48	0
TAP	76	96	7
STR	76	192	6
SI_	76	192	6	96	48	3
STR	76	192	7
SI_	76	192	7	96	48	2
BRK	77	0	1
BRK	77	0	4
STR	77	192	6
SI_	77	192	6	96	48	2
TAP	77	288	0
STR	78	0	1
SI_	78	0	1	96	48	5
TAP	78	96	7
STR	78	192	7
SUL	78	192	7	96	48	3
TAP	78	288	1
STR	79	0	0
SUR	79	0	0	96	48	4
TAP	79	96	6
TAP	79	192	7
TAP	79	288	0
TAP	79	288	7
TAP	80	0	1
TAP	80	0	3
TAP	80	96	4
TAP	80	96	6
TAP	80	192	2
HLD	80	192	6	96
TAP	80	288	7
BRK	81	0	0
BRK	81	0	5
STR	81	192	6
SCL	81	192	6	96	48	4
STR	81	192	7
SUL	81	192	7	96	48	3
STR	82	0	0
SUR	82	0	0	96	48	4
STR	82	0	1
SCR	82	0	1	96	48	3
STR	82	192	6
SCL	82	192	6	96	48	4
STR	82	192	7
SUL	82	192	7	96	48	3
STR	83	0	0
SUR	83	0	0	96	48	4
STR	83	0	1
SCR	83	0	1	96	48	3
TAP	83	192	6
TAP	83	288	1
TAP	83	288	4
TAP	84	0	4
TAP	84	48	3
TAP	84	96	2
TAP	84	96	5
STR	84	192	0
SI_	84	192	0	96	48	4
STR	84	192	7
SI_	84	192	7	96	48	5
TAP	85	0	3
TAP	85	0	6
TAP	85	96	0
TAP	85	96	1
TAP	85	192	3
TAP	85	192	7
BRK	86	96	0
TAP	86	192	1
TAP	86	192	6
TAP	86	288	5
TAP	86	336	5
TAP	87	0	4
TAP	87	96	1
TAP	87	144	1
TAP	87	192	3
TAP	87	288	7
TAP	87	336	7
TAP	88	0	4
TAP	88	96	0
TAP	88	96	1
TAP	88	192	2
TAP	88	192	7
TAP	88	288	3
TAP	88	336	3
TAP	89	0	4
TAP	89	96	2
TAP	89	96	5
TAP	89	192	0
TAP	89	192	4
TAP	89	288	3
TAP	89	288	7
TAP	90	0	0
TAP	90	0	4
TAP	90	192	1
TAP	90	192	6
TAP	90	288	2
TAP	90	336	2
TAP	91	0	3
TAP	91	96	6
TAP	91	144	6
TAP	91	192	4
TAP	91	288	0
TAP	91	336	0
TAP	92	0	3
TAP	92	96	6
TAP	92	96	7
TAP	92	192	0
TAP	92	192	5
TAP	92	288	4
TAP	92	336	4
TAP	93	0	3
TAP	93	96	2
TAP	93	96	5
TAP	93	192	3
TAP	93	192	7
TAP	93	288	2
TAP	93	288	6
TAP	94	0	1
TAP	94	0	5
TAP	94	192	0
HLD	94	192	1	96
TAP	94	288	7
TAP	95	0	0
HLD	95	0	1	96
TAP	95	96	6
TAP	95	192	0
HLD	95	192	1	96
TAP	95	288	5
TAP	96	0	1
TAP	96	48	7
TAP	96	96	7
HLD	96	192	6	96
TAP	96	192	7
TAP	96	288	0
HLD	97	0	6	96
TAP	97	0	7
TAP	97	96	1
HLD	97	192	6	96
TAP	97	192	7
TAP	97	288	2
TAP	98	0	3
TAP	98	0	5
TAP	98	192	2
TAP	98	192	5
TAP	98	288	3
TAP	98	336	4
TAP	99	0	2
TAP	99	96	5
TAP	99	144	4
TAP	99	192	6
TAP	99	288	2
TAP	99	336	3
TAP	100	0	0
TAP	100	96	6
TAP	100	144	4
TAP	100	192	7
TAP	100	288	1
TAP	100	288	5
TAP	101	0	0
TAP	101	48	0
TAP	101	96	7
STR	101	144	7
SF_	101	144	7	96	192	3
BST	102	144	1
SCL	102	144	1	96	720	3
BRK	102	144	5

T_REC_TAP	427
T_REC_BRK	29
T_REC_XTP	0
T_REC_HLD	31
T_REC_XHO	0
T_REC_STR	47
T_REC_BST	1
T_REC_XST	0
T_REC_TTP	0
T_REC_THO	0
T_REC_SLD	48
T_REC_ALL	583
T_NUM_TAP	474
T_NUM_BRK	30
T_NUM_HLD	31
T_NUM_SLD	48
T_NUM_ALL	583
T_JUDGE_TAP	504
T_JUDGE_HLD	74
T_JUDGE_SLD	48
T_JUDGE_ALL	626
TTM_EACHPAIRS	152
TTM_SCR_TAP	237000
TTM_SCR_BRK	78000
TTM_SCR_HLD	31000
TTM_SCR_SLD	72000
TTM_SCR_ALL	418000
TTM_SCR_S	402550
TTM_SCR_SS	415000
TTM_RAT_ACV	10072

