VERSION	0.00.00	1.03.00
FES_MODE	0
BPM_DEF	192.000	192.000	192.000	192.000
MET_DEF	4	4
RESOLUTION	384
CLK_DEF	384
COMPATIBLE_CODE	MA2

BPM	0	0	192.000
MET	0	0	4	4
MET	54	0	4	7
MET	57	192	4	4

TAP	6	0	5
TAP	6	96	5
TAP	6	192	4
TAP	6	192	5
TAP	7	0	2
TAP	7	96	2
TAP	7	192	2
TAP	7	192	3
TAP	8	0	6
TAP	8	96	6
TAP	8	192	6
TAP	8	192	7
TAP	9	0	1
TAP	9	96	1
TAP	9	192	0
TAP	9	192	1
TAP	10	0	5
TAP	10	96	5
TAP	10	192	4
TAP	10	192	6
TAP	11	0	2
TAP	11	96	2
TAP	11	192	1
TAP	11	192	3
TAP	12	0	6
TAP	12	96	6
TAP	12	192	5
TAP	12	192	7
TAP	13	0	1
TAP	13	96	1
BRK	13	192	0
BRK	13	192	2
TAP	14	0	2
TAP	14	96	2
TAP	14	192	3
TAP	14	192	4
TAP	15	0	5
TAP	15	96	5
TAP	15	192	3
TAP	15	192	4
HLD	16	0	2	192
HLD	16	0	3	192
HLD	17	0	4	192
HLD	17	0	5	192
TAP	18	0	5
TAP	18	96	5
TAP	18	192	3
TAP	18	192	4
TAP	19	0	2
TAP	19	96	2
TAP	19	192	3
TAP	19	192	4
HLD	20	0	4	192
HLD	20	0	5	192
HLD	21	0	2	192
HLD	21	0	3	192
TAP	22	0	4
TAP	22	96	4
TAP	22	192	2
TAP	22	192	3
TAP	23	0	3
TAP	23	96	3
TAP	23	192	4
TAP	23	192	5
HLD	24	0	6	192
HLD	24	192	7	192
HLD	25	0	0	192
TAP	25	192	1
TAP	26	0	3
TAP	26	96	3
TAP	26	192	4
TAP	26	192	5
TAP	27	0	4
TAP	27	96	4
TAP	27	192	2
TAP	27	192	3
HLD	28	0	1	192
HLD	28	192	0	192
HLD	29	0	7	192
TAP	29	192	6
HLD	30	0	5	576
TAP	30	192	4
TAP	31	0	3
TAP	31	192	4
HLD	32	0	2	576
TAP	32	192	3
TAP	33	0	4
TAP	33	192	3
HLD	34	0	6	192
TAP	34	192	7
HLD	35	0	1	192
TAP	35	192	0
STR	36	0	0
SI_	36	0	0	96	192	4
STR	36	0	7
SI_	36	0	7	96	192	3
TAP	37	0	3
TAP	37	0	4
TAP	37	96	3
TAP	37	96	4
BRK	37	192	2
BRK	37	192	5
TAP	38	0	6
TAP	38	96	6
TAP	38	192	6
TAP	38	192	7
TAP	38	288	6
TAP	38	288	7
TAP	39	0	1
TAP	39	96	1
TAP	39	192	0
TAP	39	192	1
TAP	39	288	0
TAP	39	288	1
TAP	40	0	6
TAP	40	96	6
TAP	40	96	7
TAP	40	192	1
TAP	40	288	0
TAP	40	288	1
TAP	41	0	0
TAP	41	0	7
BRK	41	96	1
BRK	41	96	6
BRK	41	192	1
BRK	41	192	6
TAP	42	0	2
TAP	42	96	2
TAP	42	192	2
TAP	42	192	3
TAP	42	288	2
TAP	42	288	3
TAP	43	0	5
TAP	43	96	5
TAP	43	192	4
TAP	43	192	5
TAP	43	288	4
TAP	43	288	5
TAP	44	0	2
TAP	44	96	2
TAP	44	96	3
TAP	44	192	5
TAP	44	288	4
TAP	44	288	5
TAP	45	0	3
TAP	45	0	4
TAP	45	96	2
TAP	45	96	5
BRK	45	192	1
BRK	45	192	6
HLD	46	0	1	192
TAP	46	192	0
TAP	46	288	2
TAP	46	288	7
HLD	47	0	6	192
TAP	47	192	7
TAP	47	288	0
TAP	47	288	5
TAP	48	0	6
TAP	48	0	7
TAP	48	96	6
TAP	48	96	7
TAP	48	192	0
TAP	48	192	1
TAP	48	288	0
TAP	48	288	1
TAP	49	0	0
TAP	49	0	7
TAP	49	96	1
TAP	49	96	6
BRK	49	192	1
BRK	49	192	6
HLD	50	0	2	192
TAP	50	192	3
TAP	50	288	1
TAP	50	288	4
HLD	51	0	5	192
TAP	51	192	4
TAP	51	288	3
TAP	51	288	6
TAP	52	0	4
TAP	52	0	5
TAP	52	96	4
TAP	52	96	5
TAP	52	192	2
TAP	52	192	3
TAP	52	288	2
TAP	52	288	3
TAP	53	0	3
TAP	53	0	4
TAP	53	96	2
TAP	53	96	5
BRK	53	192	1
BRK	53	192	6
TAP	54	0	6
TAP	54	96	5
TAP	54	192	4
TAP	54	288	3
TAP	55	0	2
TAP	55	96	1
TAP	55	192	0
TAP	55	192	7
TAP	55	288	1
TAP	56	0	2
TAP	56	96	3
TAP	56	192	4
TAP	56	288	5
TAP	57	0	6
TAP	57	96	0
TAP	57	96	7
TAP	57	192	6
TAP	57	288	5
TAP	58	0	4
TAP	58	96	2
TAP	58	96	3
TAP	58	192	1
TAP	58	288	2
TAP	59	0	3
TAP	59	96	4
TAP	59	192	3
TAP	59	192	4
TAP	59	288	2
TAP	59	288	5
TAP	60	0	1
TAP	60	0	6
TAP	60	96	0
TAP	60	96	7
TAP	60	192	0
TAP	60	192	7
BRK	60	288	1
BRK	60	288	6
BRK	61	0	1
BRK	61	0	6
HLD	61	192	0	192
HLD	61	192	1	192
HLD	62	192	6	192
HLD	62	192	7	192
HLD	63	192	0	96
HLD	63	192	1	96
HLD	64	0	6	96
HLD	64	0	7	96
TAP	64	192	0
TAP	64	192	7
BRK	64	288	1
BRK	64	288	6
BRK	65	0	1
BRK	65	0	6
HLD	65	192	4	192
HLD	65	192	5	192
HLD	66	192	2	192
HLD	66	192	3	192
HLD	67	192	4	96
HLD	67	192	5	96
HLD	68	0	2	96
HLD	68	0	3	96
STR	68	192	3
SCL	68	192	3	96	192	0
STR	68	192	4
SCR	68	192	4	96	192	7
TAP	69	192	6
TAP	69	192	7
TAP	69	288	6
TAP	69	288	7
TAP	70	0	0
TAP	70	0	5
TAP	70	96	6
TAP	70	96	7
TAP	70	192	0
TAP	70	192	1
TAP	70	288	0
TAP	70	288	1
TAP	71	0	2
TAP	71	0	7
TAP	71	96	0
TAP	71	96	1
TAP	71	192	6
TAP	71	192	7
TAP	71	288	0
TAP	71	288	5
TAP	72	0	1
TAP	72	0	4
TAP	72	96	2
TAP	72	96	3
TAP	72	192	3
TAP	72	192	4
TAP	72	288	2
TAP	72	288	5
BRK	73	0	2
BRK	73	0	5
TAP	73	192	4
TAP	73	192	5
TAP	73	288	4
TAP	73	288	5
TAP	74	0	3
TAP	74	0	6
TAP	74	96	4
TAP	74	96	5
TAP	74	192	2
TAP	74	192	3
TAP	74	288	2
TAP	74	288	3
TAP	75	0	1
TAP	75	0	4
TAP	75	96	2
TAP	75	96	3
TAP	75	192	2
TAP	75	192	3
TAP	75	288	1
TAP	75	288	4
TAP	76	0	0
TAP	76	0	5
TAP	76	96	6
TAP	76	96	7
TAP	76	192	0
TAP	76	288	7
BRK	77	0	0
BRK	77	0	7
HLD	77	192	1	96
TAP	77	288	0
TAP	78	0	2
TAP	78	0	7
TAP	78	96	0
TAP	78	96	1
HLD	78	192	6	96
TAP	78	288	7
TAP	79	0	0
TAP	79	0	5
TAP	79	96	6
TAP	79	96	7
TAP	79	192	6
TAP	79	192	7
TAP	79	288	4
TAP	79	288	5
TAP	80	0	2
TAP	80	0	3
TAP	80	96	0
TAP	80	96	1
TAP	80	192	0
TAP	80	192	7
TAP	80	288	1
TAP	80	288	6
BRK	81	0	1
BRK	81	0	6
HLD	81	192	2	96
TAP	81	288	3
TAP	82	0	1
TAP	82	0	4
TAP	82	96	2
TAP	82	96	3
HLD	82	192	5	96
TAP	82	288	4
TAP	83	0	3
TAP	83	0	6
TAP	83	96	4
TAP	83	96	5
TAP	83	192	4
TAP	83	192	5
TAP	83	288	6
TAP	83	288	7
TAP	84	0	0
TAP	84	0	1
TAP	84	96	2
TAP	84	96	3
TAP	84	192	3
TAP	84	192	4
TAP	84	288	2
TAP	84	288	5
TAP	85	0	1
TAP	85	0	6
BRK	85	96	0
BRK	85	96	7
HLD	85	192	1	288
HLD	85	192	6	288
TAP	86	192	1
TAP	86	288	1
TAP	87	0	0
TAP	87	0	2
TAP	87	192	6
TAP	87	288	6
TAP	88	0	5
TAP	88	0	7
TAP	88	192	6
TAP	88	192	7
TAP	88	288	6
TAP	88	288	7
TAP	89	0	0
TAP	89	0	1
TAP	89	96	0
TAP	89	96	1
TAP	89	192	0
TAP	89	192	7
TAP	89	288	1
TAP	89	288	6
TAP	90	0	1
TAP	90	0	6
TAP	90	192	5
TAP	90	288	5
TAP	91	0	4
TAP	91	0	6
TAP	91	192	2
TAP	91	288	2
TAP	92	0	1
TAP	92	0	3
TAP	92	192	2
TAP	92	192	3
TAP	92	288	2
TAP	92	288	3
TAP	93	0	4
TAP	93	0	5
TAP	93	96	4
TAP	93	96	5
TAP	93	192	3
TAP	93	192	4
TAP	93	288	2
TAP	93	288	5
TAP	94	0	2
TAP	94	0	5
HLD	94	192	4	192
HLD	95	0	3	192
HLD	95	192	2	192
TAP	96	0	1
HLD	96	192	3	192
HLD	97	0	4	192
HLD	97	192	5	192
TAP	98	0	6
HLD	98	192	6	192
HLD	98	192	7	192
HLD	99	192	0	192
HLD	99	192	1	192
TAP	100	192	0
TAP	100	288	7
TAP	101	0	6
TAP	101	96	5
TAP	101	192	4
TAP	101	288	3
STR	102	0	3
SXR	102	0	3	96	768	0
STR	102	0	4
SXL	102	0	4	96	768	7

T_REC_TAP	343
T_REC_BRK	30
T_REC_XTP	0
T_REC_HLD	54
T_REC_XHO	0
T_REC_STR	6
T_REC_BST	0
T_REC_XST	0
T_REC_TTP	0
T_REC_THO	0
T_REC_SLD	6
T_REC_ALL	439
T_NUM_TAP	349
T_NUM_BRK	30
T_NUM_HLD	54
T_NUM_SLD	6
T_NUM_ALL	439
T_JUDGE_TAP	379
T_JUDGE_HLD	212
T_JUDGE_SLD	6
T_JUDGE_ALL	597
TTM_EACHPAIRS	155
TTM_SCR_TAP	174500
TTM_SCR_BRK	78000
TTM_SCR_HLD	54000
TTM_SCR_SLD	9000
TTM_SCR_ALL	315500
TTM_SCR_S	303150
TTM_SCR_SS	312500
TTM_RAT_ACV	10096

