VERSION	0.00.00	1.03.00
FES_MODE	0
BPM_DEF	192.000	192.000	192.000	192.000
MET_DEF	4	4
RESOLUTION	384
CLK_DEF	384
COMPATIBLE_CODE	MA2

BPM	0	0	192.000
MET	0	0	4	4
MET	54	0	4	7
MET	57	192	4	4

TAP	6	0	0
TAP	6	192	0
TAP	7	0	1
TAP	7	192	1
TAP	8	0	2
TAP	8	192	2
TAP	9	0	3
TAP	9	96	3
TAP	9	192	3
TAP	10	0	4
TAP	10	192	4
TAP	11	0	5
TAP	11	192	5
TAP	12	0	6
TAP	12	192	6
TAP	13	0	7
TAP	13	96	7
BRK	13	192	7
TAP	14	0	0
TAP	14	96	0
TAP	14	192	0
TAP	15	0	1
TAP	15	96	1
TAP	15	192	1
HLD	16	0	2	192
HLD	17	0	2	192
TAP	18	0	3
TAP	18	96	3
TAP	18	192	3
TAP	19	0	4
TAP	19	96	4
TAP	19	192	4
HLD	20	0	5	192
HLD	21	0	5	192
TAP	22	0	6
TAP	22	96	6
TAP	22	192	6
TAP	23	0	7
TAP	23	96	7
TAP	23	192	7
HLD	24	0	0	192
HLD	25	0	0	192
TAP	26	0	7
TAP	26	96	7
TAP	26	192	7
TAP	27	0	6
TAP	27	96	6
TAP	27	192	6
HLD	28	0	5	192
HLD	29	0	4	192
HLD	29	0	5	192
TAP	30	0	3
TAP	30	192	3
TAP	31	0	2
TAP	31	0	3
TAP	31	96	2
TAP	31	96	3
TAP	31	192	2
TAP	31	192	3
TAP	32	0	4
TAP	32	192	4
TAP	33	0	4
TAP	33	0	5
TAP	33	96	4
TAP	33	96	5
TAP	33	192	4
TAP	33	192	5
TAP	34	0	2
TAP	34	0	4
TAP	34	192	2
TAP	34	192	4
TAP	35	0	3
TAP	35	0	5
TAP	35	96	3
TAP	35	96	5
TAP	35	192	3
TAP	35	192	5
TAP	36	0	4
TAP	36	96	4
TAP	36	192	3
TAP	36	288	3
TAP	37	0	3
TAP	37	0	4
TAP	37	96	3
TAP	37	96	4
BRK	37	192	2
BRK	37	192	5
TAP	38	0	2
TAP	38	0	3
TAP	38	192	2
TAP	38	192	3
TAP	39	0	4
TAP	39	0	5
TAP	39	192	4
TAP	39	192	5
TAP	40	0	6
TAP	40	0	7
TAP	40	192	6
TAP	40	192	7
TAP	41	0	0
TAP	41	96	0
TAP	41	192	0
TAP	42	0	6
TAP	42	0	7
TAP	42	192	6
TAP	42	192	7
TAP	43	0	4
TAP	43	0	5
TAP	43	192	4
TAP	43	192	5
TAP	44	0	2
TAP	44	0	3
TAP	44	192	2
TAP	44	192	3
TAP	45	0	1
TAP	45	96	1
TAP	45	192	0
TAP	45	192	1
TAP	46	0	2
TAP	46	0	3
TAP	46	192	2
TAP	46	192	3
TAP	47	0	4
TAP	47	0	5
TAP	47	192	4
TAP	47	192	5
TAP	48	0	2
TAP	48	0	3
TAP	48	192	4
TAP	48	192	5
TAP	49	0	3
TAP	49	96	4
TAP	49	192	2
TAP	49	192	5
TAP	50	0	6
TAP	50	0	7
TAP	50	192	6
TAP	50	192	7
TAP	51	0	0
TAP	51	0	1
TAP	51	192	0
TAP	51	192	1
TAP	52	0	6
TAP	52	0	7
TAP	52	192	0
TAP	52	192	1
TAP	53	0	7
TAP	53	96	0
BRK	53	192	1
BRK	53	192	6
STR	54	0	1
SI_	54	0	1	96	576	4
STR	57	192	7
SI_	57	192	7	96	672	3
TAP	61	192	2
TAP	61	192	3
TAP	62	0	2
TAP	62	0	3
TAP	62	192	4
TAP	62	192	5
TAP	63	0	4
TAP	63	0	5
TAP	63	192	3
TAP	63	288	3
TAP	64	0	4
TAP	64	96	4
TAP	64	192	3
TAP	64	192	4
TAP	64	288	3
TAP	64	288	4
TAP	65	0	2
TAP	65	0	5
TAP	65	192	4
TAP	65	192	5
TAP	66	0	4
TAP	66	0	5
TAP	66	192	2
TAP	66	192	3
TAP	67	0	2
TAP	67	0	3
TAP	67	192	4
TAP	67	288	4
TAP	68	0	3
TAP	68	96	3
TAP	68	192	3
TAP	68	192	4
TAP	68	288	3
TAP	68	288	4
BRK	69	0	2
BRK	69	0	5
TAP	69	192	1
TAP	69	192	7
TAP	70	0	1
TAP	70	0	7
TAP	70	192	0
TAP	70	192	6
TAP	71	0	0
TAP	71	0	6
TAP	71	192	1
TAP	71	288	1
TAP	72	0	2
TAP	72	96	2
TAP	72	192	3
TAP	72	192	4
TAP	72	288	3
TAP	72	288	4
TAP	73	0	2
TAP	73	0	5
TAP	73	192	3
TAP	73	192	5
TAP	74	0	3
TAP	74	0	5
TAP	74	192	2
TAP	74	192	4
TAP	75	0	2
TAP	75	0	4
TAP	75	192	5
TAP	75	288	5
TAP	76	0	6
TAP	76	96	6
TAP	76	192	0
TAP	76	192	7
TAP	76	288	0
TAP	76	288	7
BRK	77	0	1
BRK	77	0	6
TAP	77	192	2
TAP	77	192	3
TAP	78	0	4
TAP	78	0	5
TAP	78	192	2
TAP	78	192	4
TAP	79	0	3
TAP	79	0	5
TAP	79	192	4
TAP	79	288	4
TAP	80	0	3
TAP	80	96	3
TAP	80	192	3
TAP	80	192	4
TAP	80	288	3
TAP	80	288	4
TAP	81	0	2
TAP	81	0	5
TAP	81	192	6
TAP	81	192	7
TAP	82	0	0
TAP	82	0	1
TAP	82	192	0
TAP	82	192	6
TAP	83	0	1
TAP	83	0	7
TAP	83	192	0
TAP	83	288	0
TAP	84	0	7
TAP	84	96	7
TAP	84	192	0
TAP	84	192	7
TAP	84	288	0
TAP	84	288	7
TAP	85	0	1
TAP	85	0	6
BRK	85	192	0
BRK	85	192	7
TAP	86	192	0
TAP	87	0	0
TAP	87	192	1
TAP	88	0	1
TAP	88	192	2
TAP	89	0	2
TAP	89	192	3
TAP	89	288	3
TAP	90	0	3
TAP	90	192	4
TAP	91	0	4
TAP	91	192	5
TAP	92	0	5
TAP	92	192	6
TAP	93	0	6
TAP	93	192	7
TAP	93	288	7
TAP	94	0	0
TAP	94	0	7
TAP	94	192	6
TAP	95	0	6
TAP	95	192	5
TAP	96	0	5
TAP	96	192	4
TAP	97	0	4
TAP	97	192	3
TAP	97	288	3
TAP	98	0	3
TAP	98	192	2
TAP	99	0	2
TAP	99	192	1
TAP	100	0	1
TAP	100	192	0
TAP	101	0	0
TAP	101	192	0
TAP	101	192	7
STR	102	0	7
SI_	102	0	7	96	864	3

T_REC_TAP	276
T_REC_BRK	11
T_REC_XTP	0
T_REC_HLD	9
T_REC_XHO	0
T_REC_STR	3
T_REC_BST	0
T_REC_XST	0
T_REC_TTP	0
T_REC_THO	0
T_REC_SLD	3
T_REC_ALL	302
T_NUM_TAP	279
T_NUM_BRK	11
T_NUM_HLD	9
T_NUM_SLD	3
T_NUM_ALL	302
T_JUDGE_TAP	290
T_JUDGE_HLD	36
T_JUDGE_SLD	3
T_JUDGE_ALL	329
TTM_EACHPAIRS	87
TTM_SCR_TAP	139500
TTM_SCR_BRK	28600
TTM_SCR_HLD	9000
TTM_SCR_SLD	4500
TTM_SCR_ALL	181600
TTM_SCR_S	175100
TTM_SCR_SS	180500
TTM_RAT_ACV	10060

