VERSION	0.00.00	1.03.00
FES_MODE	0
BPM_DEF	175.000	175.000	175.000	175.000
MET_DEF	4	4
RESOLUTION	384
CLK_DEF	384
COMPATIBLE_CODE	MA2

BPM	0	0	175.000
MET	0	0	4	4

TAP	1	0	3
STR	1	0	4
SCR	1	0	4	96	480	3
TAP	1	192	0
TAP	2	0	4
TAP	2	96	4
TAP	2	192	4
STR	3	0	7
SCL	3	0	7	96	480	0
TAP	3	192	3
TAP	4	0	7
TAP	4	96	7
TAP	4	192	7
HLD	5	0	4	48
HLD	5	96	4	48
HLD	5	192	1	48
HLD	5	192	7	48
HLD	5	288	1	48
HLD	5	288	7	48
HLD	6	0	4	48
HLD	6	96	1	48
HLD	6	96	7	48
HLD	6	192	1	48
HLD	6	192	7	48
HLD	7	0	3	48
HLD	7	96	3	48
HLD	7	192	0	48
HLD	7	192	6	48
HLD	7	288	0	48
HLD	7	288	6	48
BST	8	0	3
SSR	8	0	3	96	48	7
BST	8	0	4
SI_	8	0	4	96	48	7
STR	8	192	3
SLR	8	192	3	96	48	1
STR	8	192	6
SCR	8	192	6	96	48	1
TAP	9	0	2
TAP	9	0	3
TAP	9	48	4
TAP	9	48	5
TAP	9	96	2
TAP	9	96	3
TAP	9	144	4
TAP	9	144	5
TAP	9	192	0
TAP	9	192	2
TAP	9	288	0
TAP	9	288	1
TAP	9	336	6
TAP	9	336	7
TAP	10	0	0
TAP	10	0	1
TAP	10	48	6
TAP	10	48	7
TAP	10	96	1
TAP	10	96	3
TAP	10	192	1
TAP	10	192	4
TAP	10	240	2
TAP	10	240	5
TAP	10	288	3
TAP	10	288	6
TAP	11	0	6
TAP	11	0	7
TAP	11	48	0
TAP	11	48	1
TAP	11	96	6
TAP	11	96	7
TAP	11	144	0
TAP	11	144	1
TAP	11	192	4
TAP	11	192	6
TAP	11	288	4
TAP	11	288	5
TAP	11	336	2
TAP	11	336	3
TAP	12	0	4
TAP	12	0	5
TAP	12	48	2
TAP	12	48	3
TAP	12	96	5
TAP	12	96	7
TAP	12	192	0
TAP	12	192	5
TAP	12	240	1
TAP	12	240	6
TAP	12	288	2
TAP	12	288	7
STR	13	0	3
SI_	13	0	3	96	48	7
TAP	13	48	3
STR	13	96	4
SI_	13	96	4	96	48	0
TAP	13	144	4
STR	13	192	2
SI_	13	192	2	96	48	6
TAP	13	240	2
STR	13	288	5
SI_	13	288	5	96	48	1
TAP	13	336	5
STR	14	0	0
SI_	14	0	0	96	48	4
TAP	14	48	0
STR	14	96	7
SI_	14	96	7	96	48	3
TAP	14	144	7
STR	14	192	1
SI_	14	192	1	96	48	5
TAP	14	240	1
STR	14	288	6
SI_	14	288	6	96	48	2
TAP	14	336	6
TAP	15	0	3
TAP	15	48	4
TAP	15	96	5
TAP	15	144	6
TAP	15	192	7
TAP	15	240	0
TAP	15	240	4
TAP	15	288	1
TAP	15	288	5
TAP	15	336	2
TAP	15	336	6
TAP	16	0	3
BST	16	0	7
SUL	16	0	7	96	96	0
STR	16	96	0
SCL	16	96	0	96	96	4
SUL	16	96	0	96	96	3
TAP	17	0	0
TAP	17	0	5
TAP	17	48	6
TAP	17	72	6
TAP	17	96	7
STR	17	144	6
SI_	17	144	6	96	24	3
STR	17	216	0
SI_	17	216	0	96	24	4
TAP	17	288	5
HLD	18	0	1	48
HLD	18	0	3	48
HLD	18	72	1	48
HLD	18	72	7	48
STR	18	144	6
SI_	18	144	6	96	48	3
STR	18	144	7
SI_	18	144	7	96	48	2
TAP	18	192	6
TAP	18	192	7
TAP	19	0	1
TAP	19	0	4
TAP	19	48	2
TAP	19	72	2
TAP	19	96	3
STR	19	144	1
SI_	19	144	1	96	24	4
STR	19	216	7
SI_	19	216	7	96	24	3
TAP	19	288	2
HLD	20	0	4	48
HLD	20	0	6	48
HLD	20	72	0	48
HLD	20	72	6	48
TAP	20	144	7
TAP	20	168	7
BST	20	192	0
SUL	20	192	0	96	48	4
SUR	20	192	0	96	48	4
TAP	21	0	3
TAP	21	0	6
TAP	21	48	2
TAP	21	72	2
TAP	21	96	3
STR	21	144	2
SI_	21	144	2	96	24	7
STR	21	216	4
SI_	21	216	4	96	24	0
TAP	21	288	1
HLD	22	0	5	48
HLD	22	0	7	48
HLD	22	72	3	48
HLD	22	72	5	48
STR	22	144	2
SI_	22	144	2	96	48	7
STR	22	144	3
SI_	22	144	3	96	48	6
TAP	22	192	2
TAP	22	192	3
TAP	23	0	0
TAP	23	0	5
TAP	23	48	6
TAP	23	72	6
TAP	23	96	7
STR	23	144	5
SI_	23	144	5	96	24	0
STR	23	216	3
SI_	23	216	3	96	24	7
TAP	23	288	6
TAP	24	0	1
TAP	24	0	5
BRK	24	288	3
BRK	24	288	4
STR	25	0	1
SI_	25	0	1	96	36	6
STR	25	48	5
SI_	25	48	5	96	36	2
TAP	25	96	1
TAP	25	144	5
STR	25	192	1
SI_	25	192	1	96	36	6
STR	25	240	5
SI_	25	240	5	96	36	2
TAP	25	288	1
TAP	25	336	5
STR	26	0	1
SI_	26	0	1	96	36	6
STR	26	48	5
SI_	26	48	5	96	36	2
TAP	26	96	1
TAP	26	144	5
STR	26	192	1
SI_	26	192	1	96	36	6
STR	26	240	5
SI_	26	240	5	96	36	2
TAP	26	288	1
TAP	26	336	5
STR	27	0	0
SI_	27	0	0	96	36	3
STR	27	48	4
SI_	27	48	4	96	36	7
TAP	27	96	0
TAP	27	144	4
STR	27	192	0
SI_	27	192	0	96	36	3
STR	27	240	4
SI_	27	240	4	96	36	7
TAP	27	288	0
TAP	27	336	4
HLD	28	0	0	48
HLD	28	72	5	48
HLD	28	72	7	48
STR	28	144	1
SV_	28	144	1	96	48	2
STR	28	144	3
SUR	28	144	3	96	48	0
TAP	28	192	1
TAP	28	192	3
TAP	29	0	4
TAP	29	0	5
TAP	29	48	0
TAP	29	72	7
TAP	29	96	0
STR	29	144	1
SI_	29	144	1	96	48	4
STR	29	144	2
SI_	29	144	2	96	48	7
TAP	29	192	1
TAP	29	192	2
TAP	30	0	5
TAP	30	0	6
TAP	30	48	2
TAP	30	72	3
TAP	30	96	2
STR	30	144	0
SI_	30	144	0	96	48	3
STR	30	144	7
SI_	30	144	7	96	48	4
TAP	30	192	0
TAP	30	192	7
TAP	31	0	0
TAP	31	24	4
TAP	31	48	0
TAP	31	72	4
TAP	31	96	5
TAP	31	120	1
TAP	31	144	5
TAP	31	168	1
TAP	31	192	6
TAP	31	216	2
TAP	31	240	6
TAP	31	264	2
TAP	31	288	3
TAP	31	288	7
TAP	31	312	2
TAP	31	312	6
TAP	31	336	1
TAP	31	336	5
HLD	31	360	0	168
TAP	31	360	4
TAP	32	0	3
TAP	32	48	4
TAP	32	96	5
TAP	32	144	6
BST	32	192	0
SI_	32	192	0	96	36	4
BST	32	192	7
SI_	32	192	7	96	36	3
TAP	33	0	2
STR	33	0	5
SCR	33	0	5	96	576	2
TAP	33	144	3
TAP	33	240	4
TAP	33	288	4
TAP	34	0	6
TAP	34	48	6
STR	34	96	7
SUR	34	96	7	96	96	3
TAP	34	144	7
STR	35	0	2
SCL	35	0	2	96	576	5
TAP	35	0	5
TAP	35	144	4
TAP	35	240	3
TAP	35	288	3
TAP	36	0	1
TAP	36	48	1
STR	36	96	0
SUL	36	96	0	96	96	4
TAP	36	144	0
TAP	37	0	1
STR	37	0	6
SCL	37	0	6	96	576	0
TAP	37	144	0
TAP	37	240	7
TAP	37	288	7
TAP	38	0	5
TAP	38	48	5
STR	38	96	4
SUL	38	96	4	96	96	7
TAP	38	144	4
STR	39	0	1
SCR	39	0	1	96	576	7
TAP	39	0	6
TAP	39	144	7
TAP	39	240	0
TAP	39	288	0
TAP	40	0	2
TAP	40	48	2
STR	40	96	3
SUR	40	96	3	96	96	0
TAP	40	144	3
TAP	41	0	4
TAP	41	0	5
TAP	41	96	5
TAP	41	144	4
TAP	41	192	5
TAP	41	240	4
TAP	41	288	3
TAP	41	288	6
TAP	41	336	4
HLD	42	0	5	144
TAP	42	48	6
STR	42	96	7
SUR	42	96	7	96	96	4
STR	42	144	0
SCR	42	144	0	96	48	3
TAP	43	0	2
TAP	43	0	3
TAP	43	96	2
TAP	43	144	3
TAP	43	192	2
TAP	43	240	3
TAP	43	288	1
TAP	43	288	4
TAP	43	336	3
HLD	44	0	2	144
TAP	44	48	1
STR	44	96	0
SUL	44	96	0	96	96	3
STR	44	144	7
SCL	44	144	7	96	48	4
TAP	45	0	1
TAP	45	0	3
TAP	45	96	3
TAP	45	96	5
TAP	45	144	2
TAP	45	192	1
TAP	45	192	3
TAP	45	240	4
TAP	45	288	3
TAP	45	288	5
TAP	45	336	2
TAP	46	0	0
HLD	46	0	1	144
TAP	46	48	7
STR	46	96	6
SCR	46	96	6	96	96	1
STR	46	144	5
SUR	46	144	5	96	48	2
TAP	47	0	4
TAP	47	0	6
TAP	47	96	2
TAP	47	96	4
TAP	47	144	5
TAP	47	192	4
TAP	47	192	6
TAP	47	240	3
TAP	47	288	2
TAP	47	288	4
TAP	47	336	5
HLD	48	0	6	144
TAP	48	0	7
TAP	48	48	0
STR	48	96	1
SCL	48	96	1	96	96	6
STR	48	144	2
SUL	48	144	2	96	48	5
TAP	49	0	5
TAP	49	0	7
TAP	49	48	5
TAP	49	96	2
TAP	49	96	4
TAP	49	144	4
TAP	49	192	5
TAP	49	192	7
TAP	49	240	5
TAP	49	288	2
TAP	49	288	4
TAP	49	336	4
TAP	50	0	5
TAP	50	0	7
TAP	50	48	5
TAP	50	96	2
TAP	50	96	4
TAP	50	144	4
BST	50	192	2
SCL	50	192	2	96	48	6
BST	50	192	4
SV_	50	192	4	96	48	6
TAP	51	0	0
TAP	51	0	2
TAP	51	48	2
TAP	51	96	3
TAP	51	96	5
TAP	51	144	3
TAP	51	192	0
TAP	51	192	2
TAP	51	240	2
TAP	51	288	3
TAP	51	288	5
TAP	51	336	3
TAP	52	0	0
TAP	52	0	2
TAP	52	48	2
TAP	52	96	0
TAP	52	96	2
TAP	52	144	2
TAP	52	192	3
TAP	52	192	5
TAP	52	240	3
TAP	52	288	3
TAP	52	288	5
TAP	52	336	3
STR	53	0	2
SV_	53	0	2	96	48	7
STR	53	0	5
SCR	53	0	5	96	48	7
STR	53	96	2
SCL	53	96	2	96	48	0
STR	53	96	5
SV_	53	96	5	96	48	0
STR	53	192	2
SV_	53	192	2	96	48	7
STR	53	192	5
SCR	53	192	5	96	48	7
STR	53	288	2
SCL	53	288	2	96	48	0
STR	53	288	5
SV_	53	288	5	96	48	0
STR	54	0	2
SV_	54	0	2	96	48	7
STR	54	0	5
SCR	54	0	5	96	48	7
STR	54	96	2
SCL	54	96	2	96	48	0
STR	54	96	5
SV_	54	96	5	96	48	0
STR	54	192	2
SV_	54	192	2	96	48	7
STR	54	192	5
SCR	54	192	5	96	48	7
TAP	54	288	2
TAP	54	288	5
TAP	55	0	1
TAP	55	24	4
TAP	55	48	3
TAP	55	72	6
TAP	55	96	2
TAP	55	120	7
TAP	55	144	0
TAP	55	168	5
TAP	55	192	2
TAP	55	216	7
TAP	55	240	3
TAP	55	264	6
TAP	55	288	1
TAP	55	312	5
TAP	55	336	0
TAP	55	360	4
BST	56	0	7
SUL	56	0	7	96	96	0
STR	56	96	0
SCL	56	96	0	96	96	4
SUL	56	96	0	96	96	3
TAP	57	0	2
TAP	57	0	7
TAP	57	48	5
TAP	57	72	5
TAP	57	96	4
STR	57	144	7
SI_	57	144	7	96	24	3
STR	57	216	2
SI_	57	216	2	96	24	6
TAP	57	288	4
HLD	58	0	1	48
HLD	58	0	3	48
HLD	58	72	3	48
HLD	58	72	5	48
STR	58	144	5
SI_	58	144	5	96	48	1
STR	58	144	7
SI_	58	144	7	96	48	3
TAP	58	192	5
TAP	58	192	7
TAP	59	0	0
TAP	59	0	5
TAP	59	48	2
TAP	59	72	2
TAP	59	96	3
STR	59	144	0
SI_	59	144	0	96	24	4
STR	59	216	5
SI_	59	216	5	96	24	1
TAP	59	288	3
HLD	60	0	4	48
HLD	60	0	6	48
HLD	60	72	0	48
HLD	60	72	6	48
TAP	60	144	7
TAP	60	168	7
BST	60	192	0
SUL	60	192	0	96	48	4
SUR	60	192	0	96	48	4
TAP	61	0	3
TAP	61	0	6
TAP	61	48	1
TAP	61	72	1
TAP	61	96	0
STR	61	144	3
SI_	61	144	3	96	24	7
STR	61	216	6
SI_	61	216	6	96	24	2
TAP	61	288	0
HLD	62	0	5	48
HLD	62	0	7	48
HLD	62	72	3	48
HLD	62	72	5	48
STR	62	144	1
SI_	62	144	1	96	48	5
STR	62	144	3
SI_	62	144	3	96	48	7
TAP	62	192	1
TAP	62	192	3
TAP	63	0	1
TAP	63	0	4
TAP	63	48	6
TAP	63	72	6
TAP	63	96	7
STR	63	144	4
SI_	63	144	4	96	24	0
STR	63	216	1
SI_	63	216	1	96	24	5
TAP	63	288	7
HLD	64	0	0	48
HLD	64	0	2	48
HLD	64	72	2	48
HLD	64	72	4	48
TAP	64	144	4
TAP	64	144	6
HLD	64	192	4	96
TAP	64	192	6
BRK	64	288	0
BRK	64	336	0
HLD	65	0	2	48
HLD	65	0	3	48
HLD	65	72	1	48
HLD	65	72	2	48
STR	65	144	0
SI_	65	144	0	96	48	4
TAP	65	144	1
TAP	65	240	0
TAP	65	240	7
TAP	65	336	5
HLD	66	0	4	48
HLD	66	0	5	48
HLD	66	72	5	48
HLD	66	72	6	48
STR	66	144	6
SCL	66	144	6	96	48	3
TAP	66	144	7
TAP	66	240	0
TAP	66	288	0
HLD	67	0	1	48
HLD	67	0	3	48
HLD	67	72	0	48
HLD	67	72	2	48
TAP	67	144	1
STR	67	144	7
SI_	67	144	7	96	48	3
TAP	67	240	6
TAP	67	240	7
TAP	67	336	5
HLD	68	0	4	48
HLD	68	0	6	48
HLD	68	72	5	48
HLD	68	72	7	48
TAP	68	144	0
TAP	68	144	6
BST	68	192	0
SUR	68	192	0	96	48	5
BST	68	192	7
SUL	68	192	7	96	48	2
HLD	69	0	4	48
HLD	69	0	6	48
HLD	69	72	2	48
HLD	69	72	4	48
STR	69	144	0
SI_	69	144	0	96	48	4
TAP	69	144	2
TAP	69	240	0
TAP	69	240	7
TAP	69	336	5
HLD	70	0	1	48
HLD	70	0	3	48
HLD	70	72	3	48
HLD	70	72	5	48
TAP	70	144	5
STR	70	144	7
SCL	70	144	7	96	48	3
TAP	70	240	0
TAP	70	288	0
HLD	71	0	2	48
HLD	71	0	6	48
HLD	71	72	1	48
HLD	71	72	5	48
STR	71	144	3
SI_	71	144	3	96	48	0
STR	71	144	7
SI_	71	144	7	96	48	4
TAP	71	240	3
TAP	71	240	7
TAP	72	0	1
TAP	72	0	5
STR	72	96	6
SI_	72	96	6	96	24	2
TAP	72	144	6
STR	72	192	1
SI_	72	192	1	96	24	5
BRK	72	288	1
TAP	72	288	6
TAP	73	0	3
TAP	73	0	4
TAP	73	48	3
TAP	73	72	1
TAP	73	120	1
TAP	73	144	3
TAP	73	192	4
TAP	73	216	6
TAP	73	264	6
TAP	73	288	4
TAP	73	336	0
TAP	73	336	7
TAP	74	0	2
HLD	74	0	6	72
HLD	74	72	4	48
TAP	74	120	5
TAP	74	144	3
TAP	74	168	4
HLD	74	192	2	72
HLD	74	264	0	48
TAP	74	312	1
TAP	74	336	7
TAP	74	360	0
TAP	75	0	6
TAP	75	48	0
TAP	75	72	2
TAP	75	120	2
TAP	75	144	0
TAP	75	192	7
TAP	75	216	5
TAP	75	264	5
TAP	75	288	7
TAP	75	336	3
TAP	75	336	4
TAP	76	0	2
TAP	76	0	5
TAP	76	48	1
TAP	76	72	0
TAP	76	120	6
TAP	76	144	7
STR	76	192	1
SI_	76	192	1	96	36	4
STR	76	192	6
SI_	76	192	6	96	36	3
TAP	76	240	0
TAP	76	240	7
BRK	76	288	1
BRK	76	288	6
TAP	77	0	0
TAP	77	0	7
TAP	77	48	0
TAP	77	72	2
TAP	77	120	2
TAP	77	144	0
TAP	77	192	7
TAP	77	216	5
TAP	77	264	5
TAP	77	288	7
TAP	77	336	3
TAP	77	336	4
TAP	78	0	1
HLD	78	0	5	72
HLD	78	72	7	48
TAP	78	120	6
TAP	78	144	0
TAP	78	168	7
HLD	78	192	1	72
HLD	78	264	3	48
TAP	78	312	2
TAP	78	336	4
TAP	78	360	3
TAP	79	0	5
TAP	79	48	3
TAP	79	72	1
TAP	79	120	1
TAP	79	144	3
TAP	79	192	4
TAP	79	216	6
TAP	79	264	6
TAP	79	288	4
TAP	79	336	0
TAP	79	336	7
BST	80	0	0
SI_	80	0	0	96	48	4
TAP	80	0	2
TAP	80	48	1
TAP	80	96	0
TAP	80	96	6
TAP	80	192	5
BST	80	192	7
SI_	80	192	7	96	48	3
TAP	80	240	6
TAP	80	288	1
TAP	80	288	7
STR	81	0	0
SI_	81	0	0	96	48	4
TAP	81	48	6
STR	81	96	4
SI_	81	96	4	96	48	0
TAP	81	144	5
STR	81	192	0
SI_	81	192	0	96	48	4
TAP	81	240	6
TAP	81	288	4
TAP	81	336	7
HLD	82	0	0	48
HLD	82	0	1	48
HLD	82	72	2	48
HLD	82	72	3	48
STR	82	144	4
SLL	82	144	4	96	72	0
STR	82	144	5
SLL	82	144	5	96	72	1
BRK	82	192	4
BRK	82	192	5
STR	83	0	7
SI_	83	0	7	96	48	3
TAP	83	48	1
STR	83	96	3
SI_	83	96	3	96	48	7
TAP	83	144	2
STR	83	192	7
SI_	83	192	7	96	48	3
TAP	83	240	1
TAP	83	288	3
TAP	83	336	0
HLD	84	0	6	48
HLD	84	0	7	48
HLD	84	72	4	48
HLD	84	72	5	48
STR	84	144	2
SLR	84	144	2	96	72	6
STR	84	144	3
SLR	84	144	3	96	72	7
BRK	84	192	2
BRK	84	192	3
TAP	85	0	0
TAP	85	0	2
TAP	85	48	4
TAP	85	72	3
TAP	85	72	5
TAP	85	120	1
TAP	85	144	0
STR	85	144	2
SF_	85	144	2	96	48	6
BRK	85	192	2
TAP	86	0	1
TAP	86	0	3
TAP	86	48	7
TAP	86	72	0
TAP	86	72	6
TAP	86	120	2
STR	86	144	1
SF_	86	144	1	96	48	5
TAP	86	144	3
BRK	86	192	1
TAP	87	0	0
TAP	87	24	4
TAP	87	48	0
TAP	87	72	4
TAP	87	96	5
TAP	87	120	1
TAP	87	144	5
TAP	87	168	1
TAP	87	192	6
TAP	87	216	2
TAP	87	240	6
TAP	87	264	2
TAP	87	288	3
TAP	87	288	7
TAP	87	312	2
TAP	87	312	6
TAP	87	336	1
TAP	87	336	5
TAP	87	360	0
TAP	87	360	4
TAP	88	0	3
BST	88	0	7
SUL	88	0	7	96	96	0
STR	88	96	0
SF_	88	96	0	96	84	4
TAP	89	0	3
TAP	89	0	4

T_REC_TAP	480
T_REC_BRK	13
T_REC_XTP	0
T_REC_HLD	98
T_REC_XHO	0
T_REC_STR	110
T_REC_BST	15
T_REC_XST	0
T_REC_TTP	0
T_REC_THO	0
T_REC_SLD	129
T_REC_ALL	845
T_NUM_TAP	590
T_NUM_BRK	28
T_NUM_HLD	98
T_NUM_SLD	129
T_NUM_ALL	845
T_JUDGE_TAP	618
T_JUDGE_HLD	114
T_JUDGE_SLD	129
T_JUDGE_ALL	861
TTM_EACHPAIRS	192
TTM_SCR_TAP	295000
TTM_SCR_BRK	72800
TTM_SCR_HLD	98000
TTM_SCR_SLD	193500
TTM_SCR_ALL	659300
TTM_SCR_S	636850
TTM_SCR_SS	656500
TTM_RAT_ACV	10042

