VERSION	0.00.00	1.03.00
FES_MODE	0
BPM_DEF	175.000	175.000	175.000	175.000
MET_DEF	4	4
RESOLUTION	384
CLK_DEF	384
COMPATIBLE_CODE	MA2

BPM	0	0	175.000

BST	1	0	0
SI_	1	0	0	96	1056	3
BST	1	0	7
SI_	1	0	7	96	1056	4
TAP	5	0	3
TAP	5	96	3
TAP	5	192	5
TAP	5	288	5
TAP	6	0	3
TAP	6	96	5
TAP	6	192	5
TAP	7	0	3
TAP	7	96	3
TAP	7	192	5
TAP	7	288	5
HLD	8	0	4	192
BRK	8	192	1
TAP	9	0	3
TAP	9	0	5
TAP	9	48	3
TAP	9	48	5
TAP	9	96	3
TAP	9	96	5
TAP	9	144	3
TAP	9	144	5
TAP	9	192	3
TAP	9	192	5
TAP	9	288	5
TAP	9	288	7
TAP	9	336	5
TAP	9	336	7
TAP	10	0	5
TAP	10	0	7
TAP	10	48	5
TAP	10	48	7
TAP	10	96	5
TAP	10	96	7
TAP	10	192	2
TAP	10	192	6
TAP	10	240	2
TAP	10	240	6
TAP	10	288	2
TAP	10	288	6
TAP	11	0	1
TAP	11	0	3
TAP	11	48	1
TAP	11	48	3
TAP	11	96	1
TAP	11	96	3
TAP	11	144	1
TAP	11	144	3
TAP	11	192	1
TAP	11	192	3
TAP	11	288	1
TAP	11	288	7
TAP	11	336	1
TAP	11	336	7
TAP	12	0	1
TAP	12	0	7
TAP	12	48	1
TAP	12	48	7
TAP	12	96	1
TAP	12	96	7
TAP	12	192	0
TAP	12	192	4
TAP	12	240	0
TAP	12	240	4
TAP	12	288	0
TAP	12	288	4
TAP	13	0	0
TAP	13	0	1
TAP	13	96	2
TAP	13	96	3
TAP	13	192	4
TAP	13	192	5
TAP	13	288	6
TAP	13	288	7
TAP	14	0	6
TAP	14	0	7
TAP	14	96	4
TAP	14	96	5
TAP	14	192	2
TAP	14	192	3
TAP	14	288	0
TAP	14	288	1
TAP	15	0	6
TAP	15	48	6
TAP	15	96	7
TAP	15	144	7
TAP	15	192	0
TAP	15	240	0
TAP	15	288	1
TAP	15	336	1
STR	16	0	7
SCL	16	0	7	96	96	2
TAP	16	288	0
TAP	16	288	7
HLD	17	0	2	48
HLD	17	0	4	48
HLD	17	72	2	48
HLD	17	72	4	48
HLD	17	144	2	48
HLD	17	144	4	48
HLD	17	216	2	48
HLD	17	216	4	48
TAP	17	288	2
TAP	17	288	4
HLD	18	0	3	48
HLD	18	0	5	48
HLD	18	72	3	48
HLD	18	72	5	48
HLD	18	144	3	48
HLD	18	144	5	48
HLD	18	216	3	48
HLD	18	216	5	48
TAP	18	288	3
TAP	18	288	5
HLD	19	0	1	48
HLD	19	0	4	48
HLD	19	72	1	48
HLD	19	72	4	48
HLD	19	144	1	48
HLD	19	144	4	48
HLD	19	216	1	48
HLD	19	216	4	48
TAP	19	288	1
TAP	19	288	4
HLD	20	0	0	48
HLD	20	0	7	48
HLD	20	72	0	48
HLD	20	72	7	48
TAP	20	144	0
TAP	20	144	7
BRK	20	192	0
BRK	20	192	7
BRK	20	288	1
BRK	20	288	6
HLD	21	0	5	48
HLD	21	0	6	48
HLD	21	72	5	48
HLD	21	72	6	48
HLD	21	144	4	48
HLD	21	144	7	48
HLD	21	216	4	48
HLD	21	216	7	48
TAP	21	288	4
TAP	21	288	7
HLD	22	0	1	48
HLD	22	0	2	48
HLD	22	72	1	48
HLD	22	72	2	48
HLD	22	144	0	48
HLD	22	144	3	48
HLD	22	216	0	48
HLD	22	216	3	48
TAP	22	288	0
TAP	22	288	3
HLD	23	0	1	48
HLD	23	0	6	48
HLD	23	72	1	48
HLD	23	72	6	48
HLD	23	144	2	48
HLD	23	144	5	48
HLD	23	216	2	48
HLD	23	216	5	48
TAP	23	288	2
TAP	23	288	5
STR	24	0	0
SLR	24	0	0	96	96	4
STR	24	0	7
SLL	24	0	7	96	96	3
TAP	24	288	1
TAP	24	288	6
TAP	25	0	5
TAP	25	48	5
TAP	25	96	4
TAP	25	96	6
TAP	25	192	2
TAP	25	240	2
TAP	25	288	1
TAP	25	288	3
TAP	26	0	6
TAP	26	48	6
TAP	26	96	5
TAP	26	96	7
TAP	26	192	1
TAP	26	240	1
TAP	26	288	0
TAP	26	288	2
TAP	27	0	7
TAP	27	48	7
TAP	27	96	0
TAP	27	96	6
TAP	27	192	0
TAP	27	240	0
TAP	27	288	1
TAP	27	288	7
TAP	28	0	4
TAP	28	48	4
TAP	28	96	3
TAP	28	144	3
STR	28	192	4
SI_	28	192	4	96	48	0
TAP	28	288	2
TAP	29	0	1
TAP	29	0	7
TAP	29	72	2
TAP	29	72	6
TAP	29	144	5
STR	29	192	5
SI_	29	192	5	96	48	1
TAP	29	288	2
TAP	30	0	0
TAP	30	0	6
TAP	30	72	1
TAP	30	72	5
TAP	30	144	2
STR	30	192	2
SI_	30	192	2	96	48	6
TAP	30	288	5
TAP	31	0	1
TAP	31	48	1
TAP	31	96	0
TAP	31	144	0
TAP	31	192	7
TAP	31	240	7
TAP	31	288	6
TAP	31	336	6
STR	32	0	0
SCR	32	0	0	96	96	3
BRK	32	192	7
BRK	32	288	1
BRK	32	288	5
STR	33	0	2
SXL	33	0	2	96	480	5
HLD	33	0	6	672
HLD	35	0	2	672
STR	35	0	6
SXR	35	0	6	96	480	3
STR	37	0	1
SXR	37	0	1	96	480	6
HLD	37	0	5	672
HLD	39	0	3	672
STR	39	0	7
SXL	39	0	7	96	480	2
HLD	41	0	4	768
TAP	41	96	2
TAP	41	192	0
TAP	41	288	0
TAP	42	0	3
TAP	42	96	3
TAP	42	192	0
TAP	42	288	0
HLD	43	0	3	768
TAP	43	96	5
TAP	43	192	7
TAP	43	288	7
TAP	44	0	4
TAP	44	96	4
TAP	44	192	7
TAP	44	288	7
HLD	45	0	5	768
TAP	45	96	7
TAP	45	192	0
TAP	45	288	1
TAP	46	0	2
TAP	46	96	3
TAP	46	192	4
TAP	46	288	3
HLD	47	0	2	384
TAP	47	96	0
TAP	47	192	7
TAP	47	288	6
STR	48	0	5
SI_	48	0	5	96	96	2
TAP	49	0	2
HLD	49	0	4	576
TAP	49	96	2
TAP	49	192	7
TAP	49	288	7
TAP	50	0	2
TAP	50	96	7
TAP	50	192	7
HLD	51	0	3	672
TAP	51	0	5
TAP	51	96	5
TAP	51	192	0
TAP	51	288	0
TAP	52	0	5
TAP	52	96	5
TAP	52	192	0
TAP	52	288	0
TAP	53	0	3
HLD	53	0	4	96
TAP	53	96	6
HLD	53	192	3	96
TAP	53	192	4
TAP	53	288	1
TAP	54	0	2
HLD	54	0	4	96
TAP	54	96	7
HLD	54	192	3	96
TAP	54	192	5
TAP	54	288	0
TAP	55	0	6
TAP	55	48	6
TAP	55	96	7
TAP	55	144	7
TAP	55	192	0
TAP	55	240	0
TAP	55	288	1
TAP	55	336	1
STR	56	0	7
SUL	56	0	7	96	96	2
TAP	56	288	1
TAP	56	288	6
STR	57	0	0
SUL	57	0	0	96	96	3
STR	57	192	7
SUR	57	192	7	96	96	4
STR	58	0	1
SUL	58	0	1	96	96	4
STR	58	192	6
SUR	58	192	6	96	96	3
STR	59	0	2
SUL	59	0	2	96	96	5
STR	59	192	4
SUL	59	192	4	96	96	7
STR	60	0	0
SUL	60	0	0	96	96	3
BRK	60	192	4
BRK	60	288	1
BRK	60	288	6
STR	61	0	7
SUR	61	0	7	96	96	5
STR	61	192	0
SUL	61	192	0	96	96	2
STR	62	0	5
SUR	62	0	5	96	96	3
STR	62	192	2
SUL	62	192	2	96	96	4
STR	63	0	6
SUR	63	0	6	96	96	4
STR	63	192	1
SUL	63	192	1	96	96	3
STR	64	0	6
SUR	64	0	6	96	192	0
STR	65	0	7
SI_	65	0	7	96	48	4
TAP	65	48	0
STR	65	96	1
SI_	65	96	1	96	48	5
TAP	65	288	4
TAP	65	288	6
STR	66	0	0
SI_	66	0	0	96	48	3
TAP	66	48	7
STR	66	96	6
SI_	66	96	6	96	48	2
TAP	66	288	1
TAP	66	288	3
STR	67	0	5
SI_	67	0	5	96	48	2
TAP	67	48	0
STR	67	96	1
SI_	67	96	1	96	48	4
TAP	67	288	3
TAP	67	288	5
STR	68	0	0
SI_	68	0	0	96	48	4
STR	68	96	7
SI_	68	96	7	96	48	3
STR	68	192	1
SI_	68	192	1	96	48	5
TAP	68	288	6
STR	69	0	2
SI_	69	0	2	96	48	5
TAP	69	48	7
STR	69	96	6
SI_	69	96	6	96	48	3
TAP	69	288	2
TAP	69	288	4
STR	70	0	5
SI_	70	0	5	96	48	2
TAP	70	48	1
STR	70	96	0
SI_	70	96	0	96	48	4
TAP	70	288	3
TAP	70	288	5
STR	71	0	2
SI_	71	0	2	96	48	5
TAP	71	48	6
STR	71	96	7
SI_	71	96	7	96	48	3
TAP	71	288	2
TAP	71	288	4
TAP	72	0	1
TAP	72	0	6
STR	72	96	0
SI_	72	96	0	96	48	4
STR	72	192	7
SI_	72	192	7	96	48	3
BRK	72	288	0
TAP	73	0	2
TAP	73	0	6
TAP	73	48	6
TAP	73	96	0
TAP	73	96	6
TAP	73	192	1
TAP	73	192	5
TAP	73	240	1
TAP	73	288	1
TAP	73	288	7
TAP	74	0	4
TAP	74	0	6
TAP	74	48	6
TAP	74	96	6
TAP	74	96	7
TAP	74	192	1
TAP	74	192	3
TAP	74	240	1
TAP	74	288	0
TAP	74	288	1
TAP	75	0	3
TAP	75	0	5
TAP	75	48	5
TAP	75	96	5
TAP	75	96	7
TAP	75	192	2
TAP	75	192	4
TAP	75	240	2
TAP	75	288	0
TAP	75	288	2
STR	76	0	0
SI_	76	0	0	96	48	3
STR	76	0	7
SI_	76	0	7	96	48	4
TAP	76	192	2
TAP	76	192	5
TAP	76	240	2
TAP	76	240	5
TAP	76	288	2
TAP	76	288	5
TAP	77	0	1
TAP	77	0	4
TAP	77	48	1
TAP	77	96	1
TAP	77	96	7
TAP	77	144	1
TAP	77	192	2
TAP	77	192	3
TAP	77	240	2
TAP	77	288	0
TAP	77	288	2
TAP	78	0	3
TAP	78	0	6
TAP	78	48	6
TAP	78	96	0
TAP	78	96	6
TAP	78	144	6
TAP	78	192	4
TAP	78	192	5
TAP	78	240	5
TAP	78	288	5
TAP	78	288	7
TAP	79	0	2
TAP	79	0	4
TAP	79	48	2
TAP	79	96	2
TAP	79	96	7
TAP	79	144	2
TAP	79	192	1
TAP	79	192	3
TAP	79	240	1
TAP	79	288	0
TAP	79	288	1
BST	80	0	0
SCR	80	0	0	96	48	3
BST	80	0	7
SCL	80	0	7	96	48	4
BST	80	192	3
SI_	80	192	3	96	48	0
BST	80	192	4
SI_	80	192	4	96	48	7
TAP	81	0	1
TAP	81	48	1
TAP	81	96	3
TAP	81	144	3
TAP	81	192	4
TAP	81	240	4
TAP	81	288	6
TAP	81	336	6
TAP	82	0	0
TAP	82	0	1
TAP	82	72	2
TAP	82	72	7
TAP	82	144	3
STR	82	192	4
SI_	82	192	4	96	48	7
BRK	82	288	1
TAP	83	0	6
TAP	83	48	6
TAP	83	96	4
TAP	83	144	4
TAP	83	192	3
TAP	83	240	3
TAP	83	288	1
TAP	83	336	1
TAP	84	0	6
TAP	84	0	7
TAP	84	72	0
TAP	84	72	5
TAP	84	144	4
STR	84	192	3
SI_	84	192	3	96	48	0
BRK	84	288	6
TAP	85	0	0
TAP	85	0	1
TAP	85	72	2
TAP	85	72	7
TAP	85	144	3
STR	85	192	4
SI_	85	192	4	96	48	0
BRK	85	288	1
TAP	86	0	6
TAP	86	0	7
TAP	86	72	0
TAP	86	72	5
TAP	86	144	4
STR	86	192	3
SI_	86	192	3	96	48	7
BRK	86	288	6
TAP	87	0	3
TAP	87	0	5
TAP	87	72	2
TAP	87	72	6
TAP	87	144	7
TAP	87	192	0
TAP	87	192	6
TAP	87	264	1
TAP	87	264	5
TAP	87	336	2
TAP	88	0	1
STR	88	0	6
SCL	88	0	6	96	96	1
TAP	88	288	0
TAP	88	288	7
TAP	89	0	3
TAP	89	0	4

T_REC_TAP	352
T_REC_BRK	16
T_REC_XTP	0
T_REC_HLD	67
T_REC_XHO	0
T_REC_STR	51
T_REC_BST	6
T_REC_XST	0
T_REC_TTP	0
T_REC_THO	0
T_REC_SLD	57
T_REC_ALL	549
T_NUM_TAP	403
T_NUM_BRK	22
T_NUM_HLD	67
T_NUM_SLD	57
T_NUM_ALL	549
T_JUDGE_TAP	425
T_JUDGE_HLD	202
T_JUDGE_SLD	57
T_JUDGE_ALL	684
TTM_EACHPAIRS	148
TTM_SCR_TAP	201500
TTM_SCR_BRK	57200
TTM_SCR_HLD	67000
TTM_SCR_SLD	85500
TTM_SCR_ALL	411200
TTM_SCR_S	396750
TTM_SCR_SS	409000
TTM_RAT_ACV	10053

