VERSION	0.00.00	1.03.00
FES_MODE	0
BPM_DEF	175.000	175.000	175.000	175.000
MET_DEF	4	4
RESOLUTION	384
CLK_DEF	384
COMPATIBLE_CODE	MA2

BPM	0	0	175.000

STR	1	0	0
SXL	1	0	0	96	1248	3
STR	1	0	7
SXR	1	0	7	96	1248	4
TAP	5	0	4
TAP	5	96	4
TAP	5	192	3
TAP	5	288	3
TAP	6	0	4
TAP	6	96	3
TAP	6	192	3
TAP	7	0	4
TAP	7	96	4
TAP	7	192	3
TAP	7	288	3
STR	8	0	4
SI_	8	0	4	96	192	7
TAP	9	0	0
TAP	9	96	0
TAP	9	192	1
TAP	9	288	7
TAP	10	0	7
TAP	10	96	6
TAP	10	192	2
TAP	10	192	5
TAP	10	288	2
TAP	10	288	5
TAP	11	0	3
TAP	11	96	3
TAP	11	192	2
TAP	11	288	4
TAP	12	0	4
TAP	12	96	5
TAP	12	192	1
TAP	12	192	6
TAP	12	288	1
TAP	12	288	6
TAP	13	0	0
TAP	13	96	1
TAP	13	192	2
TAP	13	288	3
TAP	14	0	4
TAP	14	96	5
TAP	14	192	6
TAP	14	288	7
TAP	15	0	0
TAP	15	0	7
TAP	15	96	1
TAP	15	96	6
TAP	15	192	2
TAP	15	192	5
STR	15	288	3
SCL	15	288	3	96	192	0
STR	15	288	4
SCR	15	288	4	96	192	7
BRK	16	288	0
BRK	16	288	7
HLD	17	0	5	192
TAP	17	96	4
TAP	17	192	4
HLD	18	0	2	192
TAP	18	96	3
TAP	18	192	3
TAP	19	0	5
TAP	19	96	4
TAP	19	192	2
TAP	19	288	3
TAP	20	0	3
TAP	20	0	4
TAP	20	96	3
TAP	20	96	4
BRK	20	192	2
BRK	20	192	5
HLD	21	0	6	192
TAP	21	96	7
TAP	21	192	7
HLD	22	0	1	192
TAP	22	96	0
TAP	22	192	0
TAP	23	0	6
TAP	23	96	7
TAP	23	192	1
TAP	23	288	0
HLD	24	0	0	96
HLD	24	0	7	96
BRK	24	192	1
BRK	24	192	6
BRK	24	288	1
BRK	24	288	6
TAP	25	0	5
TAP	25	96	4
TAP	25	192	4
TAP	25	192	5
TAP	25	288	4
TAP	25	288	5
TAP	26	0	2
TAP	26	96	3
TAP	26	192	2
TAP	26	192	3
TAP	26	288	2
TAP	26	288	3
TAP	27	0	5
TAP	27	96	4
TAP	27	192	2
TAP	27	288	3
TAP	28	0	3
TAP	28	0	4
TAP	28	96	3
TAP	28	96	4
BRK	28	192	2
BRK	28	192	5
HLD	29	0	6	96
HLD	29	0	7	96
BRK	29	192	6
BRK	29	192	7
BRK	29	288	6
BRK	29	288	7
HLD	30	0	0	96
HLD	30	0	1	96
BRK	30	192	0
BRK	30	192	1
BRK	30	288	0
BRK	30	288	1
TAP	31	0	0
TAP	31	0	7
TAP	31	96	1
TAP	31	96	6
TAP	31	192	2
TAP	31	192	5
TAP	31	288	3
TAP	31	288	4
HLD	32	0	3	96
HLD	32	0	4	96
BRK	32	192	2
BRK	32	192	5
HLD	33	0	1	384
HLD	34	0	0	384
HLD	35	0	7	384
TAP	36	0	6
HLD	37	0	5	384
HLD	38	0	4	384
HLD	39	0	3	384
TAP	40	0	2
HLD	41	0	2	576
TAP	41	192	3
TAP	42	0	4
TAP	42	192	3
HLD	43	0	5	576
TAP	43	192	4
TAP	44	0	3
TAP	44	192	4
HLD	45	0	1	576
TAP	45	192	0
TAP	46	0	7
TAP	46	192	0
HLD	47	0	6	576
TAP	47	192	7
TAP	48	0	0
TAP	48	192	7
TAP	49	0	7
TAP	49	96	7
TAP	49	192	0
TAP	49	288	0
TAP	50	0	7
TAP	50	96	0
TAP	50	192	0
TAP	51	0	3
TAP	51	96	3
TAP	51	192	4
TAP	51	288	4
TAP	52	0	3
TAP	52	96	3
TAP	52	192	4
TAP	52	288	4
TAP	53	0	3
TAP	53	96	2
TAP	53	192	1
TAP	53	288	0
TAP	54	0	4
TAP	54	96	5
TAP	54	192	6
TAP	54	288	7
TAP	55	0	0
TAP	55	0	7
TAP	55	96	0
TAP	55	96	7
TAP	55	192	1
TAP	55	192	6
TAP	55	288	1
TAP	55	288	6
HLD	56	0	2	192
HLD	56	0	5	192
BRK	56	288	2
BRK	56	288	5
HLD	57	0	6	192
TAP	57	96	5
TAP	57	192	5
HLD	58	0	1	192
TAP	58	96	2
TAP	58	192	2
TAP	59	0	5
TAP	59	96	4
TAP	59	192	2
TAP	59	288	3
TAP	60	0	3
TAP	60	0	4
TAP	60	96	2
TAP	60	96	5
BRK	60	192	1
BRK	60	192	6
HLD	61	0	6	192
TAP	61	96	5
TAP	61	192	5
HLD	62	0	1	192
TAP	62	96	2
TAP	62	192	2
TAP	63	0	6
TAP	63	96	7
TAP	63	192	1
TAP	63	288	0
TAP	64	0	0
TAP	64	0	7
TAP	64	96	1
TAP	64	96	6
TAP	64	192	2
TAP	64	192	5
TAP	64	288	3
TAP	64	288	4
HLD	65	0	5	96
TAP	65	96	4
TAP	65	192	3
TAP	65	192	6
HLD	66	0	2	96
TAP	66	96	3
TAP	66	192	1
TAP	66	192	4
TAP	67	0	5
TAP	67	96	4
TAP	67	192	2
TAP	67	288	3
TAP	68	0	3
TAP	68	0	4
TAP	68	96	2
TAP	68	96	5
BRK	68	192	1
BRK	68	192	6
HLD	69	0	1	96
TAP	69	96	0
TAP	69	192	2
TAP	69	192	7
HLD	70	0	6	96
TAP	70	96	7
TAP	70	192	0
TAP	70	192	5
TAP	71	0	1
TAP	71	96	0
TAP	71	192	6
TAP	71	288	7
HLD	72	0	0	192
HLD	72	0	7	192
BRK	72	288	1
BRK	72	288	6
TAP	73	0	0
TAP	73	0	1
TAP	73	96	0
TAP	73	96	1
TAP	73	192	2
TAP	73	192	7
TAP	73	288	2
TAP	73	288	7
TAP	74	0	6
TAP	74	0	7
TAP	74	96	6
TAP	74	96	7
TAP	74	192	0
TAP	74	192	5
TAP	74	288	0
TAP	74	288	5
TAP	75	0	0
TAP	75	0	1
TAP	75	96	0
TAP	75	96	1
TAP	75	192	2
TAP	75	192	7
TAP	75	288	3
TAP	75	288	6
TAP	76	0	5
TAP	76	48	5
TAP	76	96	5
HLD	76	192	3	96
HLD	76	192	4	96
TAP	77	0	4
TAP	77	0	5
TAP	77	96	4
TAP	77	96	5
TAP	77	192	3
TAP	77	192	6
TAP	77	288	3
TAP	77	288	6
TAP	78	0	2
TAP	78	0	3
TAP	78	96	2
TAP	78	96	3
TAP	78	192	1
TAP	78	192	4
TAP	78	288	1
TAP	78	288	4
TAP	79	0	4
TAP	79	0	5
TAP	79	96	4
TAP	79	96	5
TAP	79	192	3
TAP	79	192	6
TAP	79	288	2
TAP	79	288	7
TAP	80	0	1
TAP	80	48	1
TAP	80	96	1
HLD	80	192	0	96
HLD	80	192	7	96
TAP	81	0	6
TAP	81	0	7
TAP	81	96	0
TAP	81	96	5
TAP	81	192	0
TAP	81	192	1
TAP	81	288	2
TAP	81	288	7
TAP	82	0	7
TAP	82	48	7
TAP	82	96	7
HLD	82	192	1	96
HLD	82	192	6	96
TAP	83	0	4
TAP	83	0	5
TAP	83	96	3
TAP	83	96	6
TAP	83	192	2
TAP	83	192	3
TAP	83	288	1
TAP	83	288	4
TAP	84	0	3
TAP	84	48	3
TAP	84	96	3
HLD	84	192	2	96
HLD	84	192	5	96
TAP	85	0	7
TAP	85	48	7
TAP	85	96	7
BRK	85	192	0
BRK	85	288	7
TAP	86	0	0
TAP	86	48	0
TAP	86	96	0
BRK	86	192	7
BRK	86	288	0
TAP	87	0	0
TAP	87	0	7
TAP	87	96	1
TAP	87	96	6
TAP	87	192	2
TAP	87	192	5
TAP	87	288	3
TAP	87	288	4
STR	88	0	3
SI_	88	0	3	96	192	7
STR	88	0	4
SI_	88	0	4	96	192	0
BRK	89	0	1
BRK	89	0	6

T_REC_TAP	280
T_REC_BRK	34
T_REC_XTP	0
T_REC_HLD	42
T_REC_XHO	0
T_REC_STR	7
T_REC_BST	0
T_REC_XST	0
T_REC_TTP	0
T_REC_THO	0
T_REC_SLD	7
T_REC_ALL	370
T_NUM_TAP	287
T_NUM_BRK	34
T_NUM_HLD	42
T_NUM_SLD	7
T_NUM_ALL	370
T_JUDGE_TAP	321
T_JUDGE_HLD	184
T_JUDGE_SLD	7
T_JUDGE_ALL	512
TTM_EACHPAIRS	99
TTM_SCR_TAP	143500
TTM_SCR_BRK	88400
TTM_SCR_HLD	42000
TTM_SCR_SLD	10500
TTM_SCR_ALL	284400
TTM_SCR_S	272600
TTM_SCR_SS	281000
TTM_RAT_ACV	10120

