VERSION	0.00.00	1.03.00
FES_MODE	0
BPM_DEF	175.000	175.000	175.000	175.000
MET_DEF	4	4
RESOLUTION	384
CLK_DEF	384
COMPATIBLE_CODE	MA2

BPM	0	0	175.000

TAP	5	0	3
TAP	5	192	3
TAP	6	0	2
TAP	6	192	2
TAP	7	0	1
TAP	7	192	1
BRK	8	0	0
TAP	9	0	0
TAP	9	96	0
TAP	9	288	7
TAP	10	0	7
TAP	10	192	0
TAP	10	192	7
TAP	10	288	0
TAP	10	288	7
TAP	11	0	7
TAP	11	96	7
TAP	11	288	0
TAP	12	0	0
TAP	12	192	0
TAP	12	192	7
TAP	12	288	0
TAP	12	288	7
TAP	13	0	1
TAP	13	192	2
TAP	14	0	3
TAP	14	192	4
TAP	15	0	5
TAP	15	96	5
TAP	15	192	6
TAP	15	288	6
BRK	16	0	0
BRK	16	0	7
HLD	17	0	0	192
TAP	18	0	0
TAP	18	96	0
TAP	18	192	0
HLD	19	0	1	192
TAP	20	0	1
TAP	20	96	1
TAP	20	192	0
TAP	20	192	1
HLD	21	0	2	192
TAP	22	0	2
TAP	22	96	2
TAP	22	192	2
HLD	23	0	3	192
TAP	24	0	3
TAP	24	96	3
BRK	24	192	3
BRK	24	192	4
TAP	25	0	4
TAP	25	96	4
TAP	25	192	4
TAP	26	0	5
TAP	26	96	5
TAP	26	192	5
TAP	27	0	6
TAP	27	96	6
TAP	27	192	6
TAP	28	0	7
TAP	28	96	7
TAP	28	192	0
TAP	28	192	7
TAP	29	0	0
TAP	29	96	0
TAP	29	192	0
TAP	29	192	7
TAP	30	0	7
TAP	30	96	7
TAP	30	192	0
TAP	30	192	7
TAP	31	0	0
TAP	31	96	0
TAP	31	192	1
TAP	31	288	1
TAP	32	0	2
TAP	32	96	2
BRK	32	192	3
BRK	32	192	4
STR	33	0	4
SI_	33	0	4	96	672	7
STR	37	0	3
SI_	37	0	3	96	672	0
TAP	41	0	7
TAP	41	192	7
TAP	42	0	7
TAP	42	192	7
TAP	43	0	6
TAP	43	192	6
TAP	44	0	6
TAP	44	192	6
TAP	45	0	5
TAP	45	192	5
TAP	46	0	5
TAP	46	192	5
TAP	47	0	4
TAP	47	192	4
TAP	48	0	4
TAP	48	192	4
TAP	49	0	3
TAP	49	96	3
TAP	49	192	3
TAP	50	0	3
TAP	50	96	3
TAP	50	192	3
TAP	50	192	4
TAP	51	0	2
TAP	51	96	2
TAP	51	192	2
TAP	52	0	2
TAP	52	96	2
TAP	52	192	2
TAP	52	192	3
TAP	53	0	1
TAP	53	96	1
TAP	53	192	1
TAP	54	0	1
TAP	54	96	1
TAP	54	192	0
TAP	54	192	1
TAP	55	0	0
TAP	55	96	0
TAP	55	192	7
TAP	55	288	7
BRK	56	0	0
BRK	56	0	7
HLD	57	0	7	192
TAP	58	0	7
TAP	58	96	7
TAP	58	192	6
TAP	58	288	6
HLD	59	0	6	192
TAP	60	0	6
TAP	60	96	6
TAP	60	192	6
TAP	60	192	7
HLD	61	0	5	192
TAP	62	0	5
TAP	62	96	5
TAP	62	192	4
TAP	62	288	4
HLD	63	0	4	192
TAP	64	0	4
TAP	64	96	4
TAP	64	192	3
TAP	64	288	3
TAP	65	0	4
TAP	65	96	4
TAP	65	192	4
TAP	66	0	3
TAP	66	96	3
TAP	66	192	3
TAP	66	288	3
TAP	67	0	2
TAP	67	96	2
TAP	67	192	2
TAP	68	0	1
TAP	68	96	1
TAP	68	192	0
TAP	68	192	7
TAP	69	0	0
TAP	69	96	0
TAP	69	192	7
TAP	69	288	7
TAP	70	0	6
TAP	70	96	6
TAP	70	192	5
TAP	70	288	5
TAP	71	0	4
TAP	71	96	4
TAP	71	192	3
TAP	71	288	3
TAP	72	0	3
TAP	72	0	4
BRK	72	192	3
BRK	72	192	4
TAP	73	0	4
TAP	73	96	4
TAP	73	192	3
TAP	73	192	4
TAP	73	288	3
TAP	73	288	4
TAP	74	0	5
TAP	74	96	5
TAP	74	192	4
TAP	74	192	5
TAP	74	288	4
TAP	74	288	5
TAP	75	0	6
TAP	75	96	6
TAP	75	192	7
TAP	75	288	7
TAP	76	0	0
TAP	76	96	7
TAP	76	192	0
TAP	77	0	0
TAP	77	96	0
TAP	77	192	0
TAP	77	192	7
TAP	77	288	0
TAP	77	288	7
TAP	78	0	1
TAP	78	96	1
TAP	78	192	0
TAP	78	192	1
TAP	78	288	0
TAP	78	288	1
TAP	79	0	2
TAP	79	96	2
TAP	79	192	3
TAP	79	288	3
TAP	80	0	3
TAP	80	0	4
TAP	80	192	3
TAP	80	192	4
TAP	81	0	3
TAP	81	96	3
TAP	81	192	2
TAP	81	288	2
TAP	82	0	1
TAP	82	96	1
TAP	82	192	0
TAP	82	192	7
TAP	83	0	7
TAP	83	96	7
TAP	83	192	6
TAP	83	288	6
TAP	84	0	5
TAP	84	96	5
TAP	84	192	3
TAP	84	192	4
TAP	85	0	2
TAP	85	0	3
TAP	85	96	2
TAP	85	96	3
TAP	85	192	1
TAP	85	192	4
TAP	86	0	4
TAP	86	0	5
TAP	86	96	4
TAP	86	96	5
TAP	86	192	3
TAP	86	192	6
TAP	87	0	3
TAP	87	96	4
TAP	87	192	3
TAP	87	288	4
TAP	88	0	3
TAP	88	0	4
BRK	89	0	3
BRK	89	0	4

T_REC_TAP	227
T_REC_BRK	13
T_REC_XTP	0
T_REC_HLD	8
T_REC_XHO	0
T_REC_STR	2
T_REC_BST	0
T_REC_XST	0
T_REC_TTP	0
T_REC_THO	0
T_REC_SLD	2
T_REC_ALL	252
T_NUM_TAP	229
T_NUM_BRK	13
T_NUM_HLD	8
T_NUM_SLD	2
T_NUM_ALL	252
T_JUDGE_TAP	242
T_JUDGE_HLD	32
T_JUDGE_SLD	2
T_JUDGE_ALL	276
TTM_EACHPAIRS	39
TTM_SCR_TAP	114500
TTM_SCR_BRK	33800
TTM_SCR_HLD	8000
TTM_SCR_SLD	3000
TTM_SCR_ALL	159300
TTM_SCR_S	153300
TTM_SCR_SS	158000
TTM_RAT_ACV	10082

