VERSION	0.00.00	1.03.00
FES_MODE	0
BPM_DEF	172.000	172.000	172.000	172.000
MET_DEF	4	4
RESOLUTION	384
CLK_DEF	384
COMPATIBLE_CODE	MA2

BPM	0	0	172.000

TAP	1	0	3
TAP	1	96	3
TAP	1	192	4
TAP	1	288	4
TAP	2	0	3
TAP	2	96	3
TAP	2	192	4
TAP	2	288	4
TAP	3	0	3
TAP	3	0	7
TAP	3	96	3
TAP	3	192	3
TAP	3	192	4
TAP	3	288	4
TAP	4	0	3
TAP	4	96	3
TAP	4	96	4
TAP	4	192	2
TAP	4	192	4
TAP	4	288	1
TAP	4	288	4
TAP	5	0	3
TAP	5	0	4
TAP	5	96	3
TAP	5	96	7
TAP	5	192	3
TAP	5	192	4
TAP	5	288	4
TAP	6	0	3
TAP	6	96	3
TAP	6	96	4
TAP	6	192	2
TAP	6	192	4
TAP	6	288	1
TAP	6	288	4
TAP	7	0	3
TAP	7	0	4
TAP	7	96	3
TAP	7	192	4
TAP	7	288	3
TAP	7	288	4
TAP	8	0	3
TAP	8	0	4
TAP	8	96	3
TAP	8	96	6
TAP	8	144	5
TAP	8	192	4
TAP	8	240	3
TAP	8	288	4
TAP	8	336	4
TAP	9	0	3
TAP	9	96	3
TAP	9	192	4
TAP	9	288	4
TAP	10	0	3
HLD	10	0	5	96
TAP	10	96	3
TAP	10	192	4
TAP	10	288	4
HLD	11	0	3	48
TAP	11	0	6
HLD	11	96	3	48
TAP	11	192	3
HLD	11	192	4	48
HLD	11	288	4	48
HLD	12	0	3	48
HLD	12	96	3	48
TAP	12	96	4
TAP	12	192	2
HLD	12	192	4	48
TAP	12	288	1
HLD	12	288	4	48
HLD	13	0	3	48
TAP	13	0	4
HLD	13	96	3	48
TAP	13	96	7
TAP	13	192	3
HLD	13	192	4	48
HLD	13	288	4	48
HLD	14	0	3	48
HLD	14	96	3	48
TAP	14	96	4
TAP	14	192	2
HLD	14	192	4	48
TAP	14	288	1
HLD	14	288	4	48
HLD	15	0	3	24
HLD	15	48	4	24
HLD	15	96	3	24
HLD	15	144	4	24
HLD	15	192	3	24
HLD	15	240	3	24
HLD	15	288	4	24
HLD	15	336	4	24
STR	16	0	3
SCL	16	0	3	96	48	0
TAP	16	96	7
STR	16	144	7
SCL	16	144	7	96	48	4
TAP	16	240	0
BRK	16	336	1
BRK	16	336	6
TAP	17	48	5
TAP	17	96	4
TAP	17	96	6
TAP	17	144	3
TAP	17	192	4
TAP	17	240	2
TAP	17	288	1
TAP	17	288	3
TAP	17	336	4
TAP	18	0	3
TAP	18	48	5
TAP	18	96	4
TAP	18	96	6
TAP	18	144	3
TAP	18	192	4
TAP	18	240	2
TAP	18	288	1
TAP	18	288	6
HLD	19	0	1	144
HLD	19	0	5	336
TAP	19	192	1
HLD	19	240	1	192
HLD	20	0	5	144
HLD	20	96	1	240
TAP	20	192	5
HLD	20	240	5	288
HLD	21	0	2	336
TAP	21	192	6
HLD	21	240	6	192
HLD	22	0	2	144
HLD	22	96	6	240
TAP	22	192	2
HLD	22	240	2	288
HLD	23	0	7	336
TAP	23	192	3
HLD	23	240	3	192
HLD	24	0	7	144
HLD	24	96	3	240
TAP	24	192	7
HLD	24	240	7	288
HLD	25	0	4	288
TAP	25	192	0
HLD	25	240	0	192
HLD	25	336	4	192
HLD	26	96	0	144
TAP	26	192	4
TAP	26	240	4
BRK	26	288	0
TAP	26	288	4
STR	27	0	5
SCR	27	0	5	96	48	0
TAP	27	96	4
STR	27	192	3
SCR	27	192	3	96	48	6
TAP	27	288	2
HLD	27	336	2	96
TAP	28	48	7
STR	28	96	7
SCL	28	96	7	96	48	4
STR	28	192	2
SCL	28	192	2	96	48	7
STR	28	288	5
SCL	28	288	5	96	48	2
STR	29	0	0
SCL	29	0	0	96	48	5
STR	29	96	3
SCR	29	96	3	96	192	2
HLD	30	96	4	96
HLD	30	192	3	96
STR	30	288	1
SCL	30	288	1	96	48	6
TAP	31	0	4
STR	31	96	5
SCL	31	96	5	96	48	2
TAP	31	192	0
STR	31	288	1
SCL	31	288	1	96	48	6
TAP	32	0	4
TAP	32	96	5
HLD	32	144	5	96
STR	32	240	0
SCR	32	240	0	96	240	7
STR	33	288	1
SI_	33	288	1	96	48	5
TAP	33	288	4
TAP	34	0	7
STR	34	96	6
SI_	34	96	6	96	48	2
TAP	34	192	0
TAP	34	288	0
TAP	34	288	7
STR	35	0	2
SCL	35	0	2	96	48	7
TAP	35	96	3
STR	35	192	4
SCL	35	192	4	96	48	1
TAP	35	288	5
HLD	35	336	5	96
TAP	36	48	0
STR	36	96	0
SCR	36	96	0	96	48	3
STR	36	192	5
SCR	36	192	5	96	48	0
STR	36	288	2
SCR	36	288	2	96	48	5
STR	37	0	7
SCR	37	0	7	96	48	2
STR	37	96	4
SCL	37	96	4	96	192	5
HLD	38	96	3	96
HLD	38	192	4	96
STR	38	288	6
SCR	38	288	6	96	48	1
TAP	39	0	3
STR	39	96	2
SCR	39	96	2	96	48	5
TAP	39	192	7
HLD	39	288	6	96
TAP	40	0	1
TAP	40	96	0
TAP	40	96	7
TAP	40	144	0
TAP	40	144	7
STR	40	240	3
SCL	40	240	3	96	144	0
STR	40	240	4
SCR	40	240	4	96	144	7
TAP	41	192	3
TAP	41	192	6
TAP	41	240	3
TAP	41	240	6
TAP	41	336	1
TAP	41	336	4
TAP	42	48	3
TAP	42	48	4
TAP	42	96	3
TAP	42	96	4
TAP	42	192	1
TAP	42	192	6
STR	42	288	2
SI_	42	288	2	96	48	7
TAP	42	288	7
STR	43	0	5
SI_	43	0	5	96	48	0
TAP	43	96	1
TAP	43	192	2
TAP	43	216	3
TAP	43	240	1
TAP	43	288	0
STR	43	288	5
SI_	43	288	5	96	48	0
STR	44	0	2
SI_	44	0	2	96	48	7
TAP	44	96	6
TAP	44	192	5
TAP	44	216	4
TAP	44	240	6
STR	44	288	1
SI_	44	288	1	96	48	6
TAP	44	288	5
STR	45	0	4
SI_	45	0	4	96	48	7
TAP	45	96	2
TAP	45	192	1
TAP	45	216	0
TAP	45	240	2
TAP	45	288	2
STR	45	288	6
SI_	45	288	6	96	48	1
STR	46	0	3
SI_	46	0	3	96	48	0
STR	46	96	5
SXL	46	96	5	96	144	0
TAP	46	192	2
TAP	46	240	2
STR	46	288	2
SI_	46	288	2	96	48	7
STR	47	0	6
SI_	47	0	6	96	48	3
STR	47	96	0
SI_	47	96	0	96	48	4
TAP	47	192	7
TAP	47	240	6
TAP	47	288	2
STR	47	288	5
SI_	47	288	5	96	48	0
STR	48	0	1
SI_	48	0	1	96	48	4
STR	48	96	7
SI_	48	96	7	96	48	3
TAP	48	192	0
TAP	48	240	1
STR	48	288	2
SCL	48	288	2	96	48	7
TAP	48	288	6
STR	49	0	5
SCL	49	0	5	96	48	2
STR	49	96	0
SCL	49	96	0	96	48	5
TAP	49	192	2
TAP	49	240	1
STR	49	288	0
SSL	49	288	0	96	144	4
STR	49	288	7
SSR	49	288	7	96	144	3
STR	50	192	0
SI_	50	192	0	96	48	4
STR	50	192	7
SI_	50	192	7	96	48	3
BRK	50	288	0
BRK	50	288	7
HLD	51	0	2	48
HLD	51	0	5	48
TAP	51	96	2
TAP	51	96	5
TAP	51	144	1
TAP	51	144	4
HLD	51	192	0	24
HLD	51	216	3	24
HLD	51	240	0	24
HLD	51	264	3	24
HLD	51	288	0	24
HLD	51	312	3	24
HLD	51	336	0	24
STR	52	0	1
SI_	52	0	1	96	48	6
STR	52	0	2
SI_	52	0	2	96	48	5
HLD	52	192	7	32
HLD	52	224	0	32
HLD	52	256	6	32
HLD	52	288	1	32
HLD	52	320	5	32
TAP	52	352	2
HLD	53	0	3	48
HLD	53	0	4	48
HLD	53	96	0	48
HLD	53	96	7	48
HLD	53	192	2	24
HLD	53	192	6	24
HLD	53	240	2	24
HLD	53	240	6	24
HLD	53	288	2	24
HLD	53	288	6	24
HLD	53	336	2	24
HLD	53	336	6	24
STR	54	0	7
SCL	54	0	7	96	96	2
TAP	54	32	7
TAP	54	64	7
STR	54	96	2
SLL	54	96	2	96	96	3
SLL	54	96	2	96	96	5
STR	55	0	2
SV_	55	0	2	96	48	4
STR	55	0	6
SV_	55	0	6	96	48	4
HLD	55	192	1	24
HLD	55	216	4	24
HLD	55	240	1	24
HLD	55	264	4	24
HLD	55	288	1	24
HLD	55	312	4	24
HLD	55	336	1	24
STR	56	0	2
SCL	56	0	2	96	48	7
STR	56	0	3
SCR	56	0	3	96	48	6
HLD	56	192	0	32
HLD	56	224	7	32
HLD	56	256	1	32
HLD	56	288	6	32
HLD	56	320	2	32
TAP	56	352	5
HLD	57	0	3	48
HLD	57	0	4	48
HLD	57	96	1	48
HLD	57	96	6	48
HLD	57	192	5	24
HLD	57	216	2	24
HLD	57	240	5	24
HLD	57	264	2	24
HLD	57	288	5	24
HLD	57	312	2	24
HLD	57	336	5	24
STR	58	0	3
SCL	58	0	3	96	48	0
STR	58	0	4
SCR	58	0	4	96	48	7
STR	58	192	0
SCR	58	192	0	96	48	3
STR	58	192	7
SCL	58	192	7	96	48	4
HLD	59	0	2	48
HLD	59	0	5	48
TAP	59	96	2
TAP	59	96	5
TAP	59	144	3
TAP	59	144	6
HLD	59	192	7	24
HLD	59	216	4	24
HLD	59	240	7	24
HLD	59	264	4	24
HLD	59	288	7	24
HLD	59	312	4	24
HLD	59	336	7	24
STR	60	0	5
SI_	60	0	5	96	48	2
STR	60	0	6
SI_	60	0	6	96	48	1
HLD	60	192	0	32
HLD	60	224	7	32
HLD	60	256	1	32
HLD	60	288	6	32
HLD	60	320	2	32
TAP	60	352	5
HLD	61	0	3	48
HLD	61	0	4	48
HLD	61	96	0	48
HLD	61	96	7	48
HLD	61	192	1	24
HLD	61	192	5	24
HLD	61	240	1	24
HLD	61	240	5	24
HLD	61	288	1	24
HLD	61	288	5	24
HLD	61	336	1	24
HLD	61	336	5	24
STR	62	0	0
SCR	62	0	0	96	96	5
TAP	62	32	0
TAP	62	64	0
STR	62	96	5
SLR	62	96	5	96	96	2
SLR	62	96	5	96	96	4
STR	63	0	1
SV_	63	0	1	96	48	3
STR	63	0	5
SV_	63	0	5	96	48	3
HLD	63	192	6	24
HLD	63	216	3	24
HLD	63	240	6	24
HLD	63	264	3	24
HLD	63	288	6	24
HLD	63	312	3	24
HLD	63	336	6	24
STR	64	0	4
SCL	64	0	4	96	48	1
STR	64	0	5
SCR	64	0	5	96	48	0
HLD	64	192	7	32
HLD	64	224	0	32
HLD	64	256	6	32
HLD	64	288	1	32
HLD	64	320	5	32
TAP	64	352	2
HLD	65	0	3	48
HLD	65	0	4	48
HLD	65	96	1	48
HLD	65	96	6	48
HLD	65	192	0	24
HLD	65	216	7	24
HLD	65	240	0	24
HLD	65	264	7	24
HLD	65	288	0	24
HLD	65	312	7	24
HLD	65	336	0	24
TAP	66	0	2
TAP	66	0	5
TAP	66	48	2
TAP	66	48	5
STR	66	96	3
SCL	66	96	3	96	96	0
STR	66	96	4
SCR	66	96	4	96	96	7
HLD	67	0	2	144
HLD	67	0	6	336
TAP	67	192	0
HLD	67	240	2	192
HLD	68	0	6	144
HLD	68	96	2	240
TAP	68	192	4
HLD	68	240	6	288
HLD	69	0	1	336
TAP	69	192	4
HLD	69	240	5	192
HLD	70	0	1	144
HLD	70	96	5	240
TAP	70	192	7
HLD	70	240	1	288
HLD	71	0	4	336
TAP	71	192	6
HLD	71	240	0	192
HLD	72	0	4	144
HLD	72	96	0	240
TAP	72	192	2
HLD	72	240	4	288
HLD	73	0	7	288
TAP	73	192	2
HLD	73	240	3	192
HLD	73	336	7	192
HLD	74	96	3	144
TAP	74	192	7
TAP	74	240	7
BRK	74	288	3
TAP	74	288	7
STR	75	0	1
SI_	75	0	1	96	48	5
TAP	75	0	5
TAP	75	96	1
HLD	75	96	7	24
HLD	75	144	6	24
STR	75	192	1
SCL	75	192	1	96	48	6
STR	75	192	5
SCL	75	192	5	96	48	3
TAP	75	288	1
STR	76	0	1
SI_	76	0	1	96	48	5
HLD	76	0	7	48
TAP	76	96	1
HLD	76	96	3	48
STR	76	192	1
SCL	76	192	1	96	48	6
HLD	76	192	7	48
TAP	76	288	1
HLD	76	288	3	48
STR	77	0	1
SI_	77	0	1	96	48	5
TAP	77	0	5
TAP	77	96	1
HLD	77	96	7	24
HLD	77	144	6	24
STR	77	192	1
SCL	77	192	1	96	48	6
STR	77	192	5
SI_	77	192	5	96	48	3
TAP	77	288	1
STR	78	0	1
SI_	78	0	1	96	48	5
HLD	78	0	7	48
TAP	78	96	1
HLD	78	96	3	48
STR	78	192	1
SCL	78	192	1	96	48	6
HLD	78	192	7	48
TAP	78	288	1
HLD	78	288	3	48
TAP	79	0	2
STR	79	0	6
SI_	79	0	6	96	48	2
HLD	79	96	0	24
TAP	79	96	6
HLD	79	144	1	24
STR	79	192	2
SI_	79	192	2	96	48	4
STR	79	192	6
SCR	79	192	6	96	48	1
TAP	79	288	6
HLD	80	0	0	48
STR	80	0	6
SI_	80	0	6	96	48	2
HLD	80	96	3	48
TAP	80	96	6
HLD	80	192	0	48
STR	80	192	6
SCR	80	192	6	96	48	1
HLD	80	288	3	48
TAP	80	288	6
TAP	81	0	2
STR	81	0	6
SI_	81	0	6	96	48	2
HLD	81	96	0	24
TAP	81	96	6
HLD	81	144	1	24
TAP	81	192	2
STR	81	192	6
SCR	81	192	6	96	48	1
HLD	81	288	4	24
TAP	81	288	6
HLD	81	336	3	24
TAP	82	0	2
STR	82	0	6
SI_	82	0	6	96	48	2
STR	82	96	1
SI_	82	96	1	96	48	5
TAP	82	96	6
TAP	82	192	1
STR	82	192	7
SI_	82	192	7	96	48	3
TAP	82	288	0
TAP	82	288	7
BRK	83	0	1
BRK	83	0	6

T_REC_TAP	213
T_REC_BRK	8
T_REC_XTP	0
T_REC_HLD	193
T_REC_XHO	0
T_REC_STR	90
T_REC_BST	0
T_REC_XST	0
T_REC_TTP	0
T_REC_THO	0
T_REC_SLD	92
T_REC_ALL	596
T_NUM_TAP	303
T_NUM_BRK	8
T_NUM_HLD	193
T_NUM_SLD	92
T_NUM_ALL	596
T_JUDGE_TAP	311
T_JUDGE_HLD	352
T_JUDGE_SLD	92
T_JUDGE_ALL	755
TTM_EACHPAIRS	119
TTM_SCR_TAP	151500
TTM_SCR_BRK	20800
TTM_SCR_HLD	193000
TTM_SCR_SLD	138000
TTM_SCR_ALL	503300
TTM_SCR_S	487450
TTM_SCR_SS	502500
TTM_RAT_ACV	10015

