VERSION	0.00.00	1.03.00
FES_MODE	0
BPM_DEF	172.000	172.000	172.000	172.000
MET_DEF	4	4
RESOLUTION	384
CLK_DEF	384
COMPATIBLE_CODE	MA2

BPM	0	0	172.000

HLD	3	0	5	384
HLD	4	0	4	384
HLD	5	0	3	384
HLD	6	0	2	384
HLD	7	0	4	384
HLD	8	0	3	384
HLD	9	0	4	384
TAP	10	0	3
HLD	11	0	4	192
TAP	11	192	3
TAP	12	0	2
TAP	12	96	2
TAP	12	96	3
TAP	12	192	3
TAP	12	192	4
TAP	12	288	4
TAP	12	288	5
HLD	13	0	5	192
TAP	13	96	4
TAP	13	192	3
TAP	14	0	5
TAP	14	96	4
TAP	14	96	5
TAP	14	192	3
TAP	14	192	4
TAP	14	288	2
TAP	14	288	3
TAP	15	0	3
TAP	15	96	4
TAP	15	192	3
TAP	15	288	4
HLD	16	0	3	144
HLD	16	0	4	144
TAP	16	240	3
TAP	16	240	4
BST	16	336	3
SXR	16	336	3	96	336	0
BST	16	336	4
SXL	16	336	4	96	336	7
TAP	19	0	2
TAP	19	0	3
TAP	19	192	1
TAP	19	192	4
TAP	19	240	1
TAP	19	240	4
TAP	20	0	2
TAP	20	0	3
TAP	20	96	2
TAP	20	96	3
TAP	20	192	0
TAP	20	192	6
TAP	20	240	0
TAP	20	240	6
TAP	21	0	4
TAP	21	0	5
TAP	21	192	3
TAP	21	192	6
TAP	21	240	3
TAP	21	240	6
TAP	22	0	4
TAP	22	0	5
TAP	22	96	4
TAP	22	96	5
TAP	22	192	2
TAP	22	192	7
TAP	22	240	2
TAP	22	240	7
TAP	23	0	6
TAP	23	0	7
TAP	23	192	0
TAP	23	192	5
TAP	23	240	0
TAP	23	240	5
TAP	24	0	6
TAP	24	0	7
TAP	24	96	6
TAP	24	96	7
TAP	24	192	1
TAP	24	192	4
TAP	24	240	1
TAP	24	240	4
TAP	25	0	3
TAP	25	0	4
TAP	25	192	2
TAP	25	192	5
TAP	25	240	2
TAP	25	240	5
STR	25	336	1
SCL	25	336	1	96	144	5
TAP	25	336	6
TAP	26	288	0
TAP	26	288	7
TAP	27	0	2
TAP	27	0	3
TAP	27	96	1
TAP	27	192	3
TAP	27	192	4
TAP	27	288	5
TAP	28	0	2
TAP	28	0	4
HLD	28	96	0	96
HLD	28	192	7	96
TAP	28	288	6
TAP	29	0	4
TAP	29	0	5
TAP	29	96	6
TAP	29	192	3
TAP	29	192	4
TAP	29	288	2
TAP	30	0	3
TAP	30	0	5
HLD	30	96	7	96
HLD	30	192	0	96
TAP	30	288	1
TAP	31	0	2
TAP	31	0	3
TAP	31	96	0
TAP	31	192	4
TAP	31	192	5
TAP	31	288	7
TAP	32	0	2
TAP	32	0	3
TAP	32	96	1
TAP	32	96	3
TAP	32	192	3
TAP	32	192	4
TAP	32	288	2
STR	32	288	5
SCR	32	288	5	96	192	2
STR	33	288	2
SCL	33	288	2	96	192	5
TAP	33	288	5
TAP	34	288	2
TAP	34	288	5
TAP	35	0	4
TAP	35	0	5
TAP	35	96	6
TAP	35	192	3
TAP	35	192	4
TAP	35	288	2
TAP	36	0	3
TAP	36	0	5
HLD	36	96	7	96
HLD	36	192	0	96
TAP	36	288	2
TAP	37	0	2
TAP	37	0	3
TAP	37	96	1
TAP	37	192	3
TAP	37	192	4
TAP	37	288	5
TAP	38	0	2
TAP	38	0	4
HLD	38	96	0	96
HLD	38	192	7	96
TAP	38	288	5
TAP	39	0	4
TAP	39	0	5
TAP	39	96	7
TAP	39	192	2
TAP	39	192	3
TAP	39	288	0
TAP	40	0	4
TAP	40	0	5
TAP	40	96	4
TAP	40	96	6
TAP	40	192	3
TAP	40	192	4
STR	40	288	2
SCL	40	288	2	96	192	5
TAP	40	288	5
TAP	41	288	2
STR	41	288	5
SCR	41	288	5	96	192	2
TAP	42	288	2
TAP	42	288	5
TAP	43	0	6
TAP	43	0	7
TAP	43	96	4
TAP	43	96	5
TAP	43	192	2
TAP	43	240	2
TAP	43	288	1
TAP	43	288	3
TAP	44	0	0
TAP	44	0	1
TAP	44	96	2
TAP	44	96	3
TAP	44	192	5
TAP	44	240	5
TAP	44	288	4
TAP	44	288	6
TAP	45	0	6
TAP	45	0	7
TAP	45	96	2
TAP	45	96	3
TAP	45	192	1
TAP	45	240	1
TAP	45	288	0
TAP	45	288	2
TAP	46	0	0
TAP	46	0	1
TAP	46	96	4
TAP	46	96	5
TAP	46	192	6
TAP	46	240	6
TAP	46	288	5
TAP	46	288	7
TAP	47	0	2
TAP	47	0	4
TAP	47	96	0
TAP	47	96	2
TAP	47	192	7
TAP	47	240	6
TAP	47	288	0
TAP	47	288	5
TAP	48	0	3
TAP	48	0	5
TAP	48	96	5
TAP	48	96	7
TAP	48	192	0
TAP	48	240	1
TAP	48	288	2
TAP	48	288	7
TAP	49	0	3
TAP	49	0	4
TAP	49	48	5
TAP	49	96	6
TAP	49	96	7
TAP	49	192	3
TAP	49	192	4
TAP	49	240	2
TAP	49	288	0
TAP	49	288	1
TAP	50	0	3
TAP	50	0	4
TAP	50	48	3
TAP	50	48	4
TAP	50	96	2
TAP	50	96	5
HLD	50	192	0	96
BRK	50	288	7
STR	51	0	4
SCL	51	0	4	96	192	0
TAP	51	0	5
TAP	51	192	7
TAP	51	240	7
TAP	51	288	7
STR	52	0	4
SCL	52	0	4	96	192	0
TAP	52	192	6
TAP	52	240	6
TAP	52	288	6
TAP	53	0	4
STR	53	0	5
SXR	53	0	5	96	288	2
TAP	54	96	3
TAP	54	144	3
TAP	54	192	4
TAP	54	240	4
TAP	54	288	3
TAP	55	0	0
STR	55	0	1
SXR	55	0	1	96	288	6
TAP	56	0	5
TAP	56	96	3
TAP	56	96	4
TAP	56	144	3
TAP	56	144	4
TAP	56	192	3
TAP	56	192	4
STR	56	288	4
SXR	56	288	4	96	288	1
TAP	56	288	5
STR	57	288	3
SXL	57	288	3	96	288	6
TAP	59	0	2
STR	59	0	3
SCR	59	0	3	96	192	7
TAP	59	192	0
TAP	59	240	0
TAP	59	288	0
STR	60	0	3
SCR	60	0	3	96	192	7
TAP	60	192	1
TAP	60	240	1
TAP	60	288	1
STR	61	0	2
SUR	61	0	2	96	288	4
TAP	61	0	3
TAP	62	96	5
TAP	62	144	5
TAP	62	192	4
TAP	62	240	4
TAP	62	288	3
STR	63	0	6
SXL	63	0	6	96	288	3
TAP	63	0	7
TAP	64	0	2
TAP	64	96	3
TAP	64	96	4
TAP	64	144	3
TAP	64	144	4
TAP	64	192	3
TAP	64	192	4
STR	64	288	2
SCL	64	288	2	96	288	5
STR	64	288	5
SCR	64	288	5	96	288	2
TAP	66	0	1
TAP	66	0	6
TAP	67	0	3
TAP	67	0	4
TAP	67	192	1
TAP	67	192	3
TAP	67	240	1
TAP	67	240	3
TAP	68	0	2
TAP	68	0	4
TAP	68	96	2
TAP	68	96	4
TAP	68	192	6
TAP	68	192	7
TAP	68	240	6
TAP	68	240	7
TAP	69	0	3
TAP	69	0	4
TAP	69	192	4
TAP	69	192	6
TAP	69	240	4
TAP	69	240	6
TAP	70	0	3
TAP	70	0	5
TAP	70	96	3
TAP	70	96	5
TAP	70	192	0
TAP	70	192	1
TAP	70	240	0
TAP	70	240	1
TAP	71	0	3
TAP	71	0	4
TAP	71	192	5
TAP	71	192	6
TAP	71	240	5
TAP	71	240	6
TAP	72	0	4
TAP	72	0	5
TAP	72	96	4
TAP	72	96	5
TAP	72	192	1
TAP	72	192	2
TAP	72	240	1
TAP	72	240	2
TAP	73	0	3
TAP	73	0	4
TAP	73	192	1
TAP	73	192	2
TAP	73	240	1
TAP	73	240	2
TAP	73	336	0
STR	73	336	6
SCL	73	336	6	96	144	1
TAP	74	288	0
TAP	74	288	7
BRK	75	0	0
BST	75	0	1
SI_	75	0	1	96	48	4
TAP	75	192	0
STR	75	192	1
SI_	75	192	1	96	48	4
TAP	76	0	0
TAP	76	0	1
TAP	76	96	6
TAP	76	96	7
TAP	76	192	0
STR	76	192	1
SI_	76	192	1	96	48	5
BST	77	0	6
SI_	77	0	6	96	48	3
BRK	77	0	7
STR	77	192	6
SI_	77	192	6	96	48	3
TAP	77	192	7
TAP	78	0	6
TAP	78	0	7
TAP	78	96	0
TAP	78	96	1
STR	78	192	6
SI_	78	192	6	96	48	2
TAP	78	192	7
BST	79	0	0
SI_	79	0	0	96	48	4
BRK	79	0	7
TAP	79	192	0
STR	79	192	7
SI_	79	192	7	96	48	3
STR	80	0	0
SI_	80	0	0	96	48	5
TAP	80	0	6
TAP	80	192	1
STR	80	192	7
SI_	80	192	7	96	48	2
BST	81	0	3
SI_	81	0	3	96	48	0
BRK	81	0	5
TAP	81	192	2
STR	81	192	4
SI_	81	192	4	96	48	7
STR	82	0	3
SI_	82	0	3	96	48	0
TAP	82	0	5
TAP	82	192	3
TAP	82	192	4
TAP	82	288	2
TAP	82	288	5
BRK	83	0	0
BRK	83	0	7

T_REC_TAP	324
T_REC_BRK	7
T_REC_XTP	0
T_REC_HLD	20
T_REC_XHO	0
T_REC_STR	27
T_REC_BST	6
T_REC_XST	0
T_REC_TTP	0
T_REC_THO	0
T_REC_SLD	33
T_REC_ALL	417
T_NUM_TAP	351
T_NUM_BRK	13
T_NUM_HLD	20
T_NUM_SLD	33
T_NUM_ALL	417
T_JUDGE_TAP	364
T_JUDGE_HLD	88
T_JUDGE_SLD	33
T_JUDGE_ALL	485
TTM_EACHPAIRS	149
TTM_SCR_TAP	175500
TTM_SCR_BRK	33800
TTM_SCR_HLD	20000
TTM_SCR_SLD	49500
TTM_SCR_ALL	278800
TTM_SCR_S	269200
TTM_SCR_SS	277500
TTM_RAT_ACV	10046

