VERSION	0.00.00	1.03.00
FES_MODE	0
BPM_DEF	172.000	172.000	172.000	172.000
MET_DEF	4	4
RESOLUTION	384
CLK_DEF	384
COMPATIBLE_CODE	MA2

BPM	0	0	172.000

HLD	3	0	0	384
HLD	5	0	1	384
HLD	7	0	2	384
TAP	9	0	3
TAP	9	192	3
TAP	10	0	3
HLD	11	0	4	384
HLD	13	0	5	384
HLD	15	0	6	384
TAP	17	0	7
TAP	17	192	7
TAP	18	0	7
BRK	19	0	0
BRK	19	0	1
TAP	19	192	0
TAP	19	192	1
TAP	20	0	0
TAP	20	0	1
TAP	21	0	6
TAP	21	0	7
TAP	21	192	6
TAP	21	192	7
TAP	22	0	6
TAP	22	0	7
TAP	23	0	0
TAP	23	0	1
TAP	23	192	0
TAP	23	192	1
TAP	24	0	0
TAP	24	0	1
TAP	25	0	6
TAP	25	0	7
TAP	25	192	6
TAP	25	192	7
TAP	26	0	6
TAP	26	0	7
TAP	27	0	0
TAP	27	192	0
TAP	28	0	1
TAP	28	96	1
TAP	28	192	1
TAP	29	0	2
TAP	29	192	2
TAP	30	0	3
TAP	30	96	3
TAP	30	192	3
TAP	30	192	4
TAP	31	0	4
TAP	31	192	4
TAP	32	0	5
TAP	32	96	5
TAP	32	192	4
TAP	32	192	5
TAP	33	0	6
TAP	33	192	6
TAP	34	0	7
TAP	34	96	7
TAP	34	192	0
TAP	34	192	7
TAP	35	0	6
TAP	35	192	6
TAP	36	0	5
TAP	36	96	5
TAP	36	192	5
TAP	37	0	4
TAP	37	192	4
TAP	38	0	3
TAP	38	96	3
TAP	38	192	3
TAP	38	192	4
TAP	39	0	2
TAP	39	192	2
TAP	40	0	1
TAP	40	96	1
TAP	40	192	0
TAP	40	192	1
TAP	41	0	0
TAP	41	192	0
TAP	42	0	7
TAP	42	96	7
TAP	42	192	0
TAP	42	192	7
TAP	43	0	1
TAP	43	96	1
TAP	43	192	1
TAP	44	0	2
TAP	44	96	3
TAP	44	192	2
TAP	45	0	3
TAP	45	96	3
TAP	45	192	3
TAP	46	0	4
TAP	46	96	3
TAP	46	192	4
TAP	47	0	4
TAP	47	96	4
TAP	47	192	4
TAP	48	0	5
TAP	48	96	4
TAP	48	192	5
TAP	49	0	6
TAP	49	96	6
TAP	49	192	6
TAP	50	0	7
TAP	50	96	0
TAP	50	192	7
STR	51	0	1
SI_	51	0	1	96	288	5
STR	53	0	6
SI_	53	0	6	96	288	2
STR	55	0	1
SI_	55	0	1	96	288	4
STR	57	0	6
SI_	57	0	6	96	288	3
STR	59	0	2
SI_	59	0	2	96	288	6
STR	61	0	5
SI_	61	0	5	96	288	1
STR	63	0	2
SI_	63	0	2	96	288	7
STR	65	0	5
SI_	65	0	5	96	288	0
BRK	67	0	6
BRK	67	0	7
TAP	67	192	6
TAP	67	192	7
TAP	68	0	6
TAP	68	0	7
TAP	68	96	6
TAP	68	96	7
TAP	68	192	6
TAP	68	192	7
TAP	69	0	0
TAP	69	0	1
TAP	69	192	0
TAP	69	192	1
TAP	70	0	0
TAP	70	0	1
TAP	70	96	0
TAP	70	96	1
TAP	70	192	0
TAP	70	192	1
TAP	71	0	6
TAP	71	0	7
TAP	71	192	6
TAP	71	192	7
TAP	72	0	6
TAP	72	0	7
TAP	72	96	6
TAP	72	96	7
TAP	72	192	6
TAP	72	192	7
TAP	73	0	0
TAP	73	0	1
TAP	73	192	0
TAP	73	192	1
TAP	74	0	0
TAP	74	0	1
TAP	74	96	0
TAP	74	96	1
TAP	74	192	0
TAP	74	192	1
TAP	75	0	6
TAP	75	0	7
TAP	75	96	6
TAP	75	96	7
TAP	75	192	6
TAP	75	192	7
TAP	76	0	4
TAP	76	0	5
TAP	76	96	4
TAP	76	96	5
TAP	76	192	4
TAP	76	192	5
TAP	77	0	2
TAP	77	0	3
TAP	77	96	2
TAP	77	96	3
TAP	77	192	2
TAP	77	192	3
TAP	78	0	0
TAP	78	0	1
TAP	78	96	0
TAP	78	96	1
TAP	78	192	0
TAP	78	192	1
TAP	79	0	0
TAP	79	0	1
TAP	79	96	0
TAP	79	96	1
TAP	79	192	0
TAP	79	192	1
TAP	80	0	2
TAP	80	0	3
TAP	80	96	2
TAP	80	96	3
TAP	80	192	2
TAP	80	192	3
TAP	81	0	4
TAP	81	0	5
TAP	81	96	4
TAP	81	96	5
TAP	81	192	4
TAP	81	192	5
TAP	82	0	6
TAP	82	0	7
TAP	82	96	6
TAP	82	96	7
TAP	82	192	6
TAP	82	192	7
BRK	83	0	0
BRK	83	0	7

T_REC_TAP	184
T_REC_BRK	6
T_REC_XTP	0
T_REC_HLD	6
T_REC_XHO	0
T_REC_STR	8
T_REC_BST	0
T_REC_XST	0
T_REC_TTP	0
T_REC_THO	0
T_REC_SLD	8
T_REC_ALL	212
T_NUM_TAP	192
T_NUM_BRK	6
T_NUM_HLD	6
T_NUM_SLD	8
T_NUM_ALL	212
T_JUDGE_TAP	198
T_JUDGE_HLD	48
T_JUDGE_SLD	8
T_JUDGE_ALL	254
TTM_EACHPAIRS	63
TTM_SCR_TAP	96000
TTM_SCR_BRK	15600
TTM_SCR_HLD	6000
TTM_SCR_SLD	12000
TTM_SCR_ALL	129600
TTM_SCR_S	125150
TTM_SCR_SS	129000
TTM_RAT_ACV	10046

