VERSION	0.00.00	1.03.00
FES_MODE	0
BPM_DEF	170.000	170.000	173.000	170.000
MET_DEF	4	4
RESOLUTION	384
CLK_DEF	384
COMPATIBLE_CODE	MA2

BPM	0	0	170.000
BPM	42	192	170.100
BPM	43	0	170.200
BPM	44	0	170.300
BPM	44	192	170.400
BPM	45	0	170.500
BPM	46	0	170.600
BPM	46	192	170.700
BPM	47	0	170.800
BPM	47	192	170.900
BPM	48	0	171.000
BPM	48	96	171.100
BPM	48	192	171.200
BPM	48	288	171.300
BPM	49	0	171.400
BPM	49	96	171.500
BPM	49	192	171.600
BPM	49	240	171.700
BPM	49	288	171.800
BPM	49	336	171.900
BPM	50	0	172.000
BPM	50	96	172.100
BPM	50	192	172.200
BPM	50	288	172.300
BPM	51	0	172.400
BPM	51	96	172.500
BPM	51	192	172.600
BPM	51	240	172.700
BPM	51	288	172.800
BPM	51	336	172.900
BPM	52	0	173.000

TAP	1	288	3
TAP	1	288	4
BST	2	0	2
SCL	2	0	2	96	1056	3
BRK	2	0	5
TAP	2	96	4
TAP	2	192	4
TAP	2	288	4
TAP	3	0	3
TAP	3	96	3
TAP	3	192	3
TAP	3	288	3
TAP	4	0	2
TAP	4	96	2
TAP	4	192	1
TAP	4	288	1
HLD	5	0	0	96
HLD	5	96	7	96
HLD	5	192	4	96
TAP	5	288	3
TAP	6	0	2
STR	6	0	5
SCR	6	0	5	96	1056	4
TAP	6	96	3
TAP	6	192	3
TAP	6	288	3
TAP	7	0	4
TAP	7	96	4
TAP	7	192	4
TAP	7	288	4
TAP	8	0	5
TAP	8	96	5
TAP	8	192	6
TAP	8	288	6
HLD	9	0	7	96
HLD	9	96	3	96
TAP	9	192	0
TAP	9	224	0
TAP	9	256	0
TAP	9	288	1
TAP	9	288	7
TAP	10	0	0
STR	10	0	7
SCL	10	0	7	96	1056	0
TAP	10	96	1
TAP	10	192	1
TAP	10	288	1
TAP	11	0	0
TAP	11	96	0
TAP	11	192	0
TAP	11	288	0
TAP	12	0	7
TAP	12	96	7
TAP	12	192	6
TAP	12	288	6
HLD	13	0	5	96
HLD	13	96	4	96
HLD	13	192	3	96
TAP	13	288	2
BRK	14	0	1
TAP	14	24	4
TAP	14	48	3
TAP	14	72	4
TAP	14	96	3
TAP	14	120	4
TAP	14	144	3
TAP	14	168	4
TAP	14	192	3
TAP	14	216	4
TAP	14	240	3
TAP	14	264	4
TAP	14	288	3
TAP	14	312	4
TAP	14	336	3
TAP	14	360	4
BRK	15	0	1
TAP	15	24	4
TAP	15	48	3
TAP	15	72	4
TAP	15	96	3
TAP	15	120	4
TAP	15	144	3
TAP	15	168	4
BRK	15	192	1
TAP	15	216	4
TAP	15	240	3
TAP	15	264	4
TAP	15	288	3
TAP	15	312	4
TAP	15	336	3
TAP	15	360	4
BRK	16	0	2
TAP	16	24	5
TAP	16	48	3
TAP	16	72	4
BRK	16	96	1
TAP	16	120	6
TAP	16	144	2
TAP	16	168	5
BRK	16	192	0
TAP	16	216	7
TAP	16	240	1
TAP	16	264	6
BRK	16	288	0
TAP	16	312	7
TAP	16	336	0
TAP	16	360	7
TAP	17	0	1
TAP	17	0	6
TAP	17	72	0
TAP	17	72	2
TAP	17	144	3
TAP	17	144	4
TAP	17	216	5
TAP	17	216	7
BRK	17	288	1
BRK	17	288	6
TAP	18	0	4
TAP	18	48	3
STR	18	96	2
SCR	18	96	2	96	48	5
STR	18	192	7
SI_	18	192	7	96	48	3
TAP	18	288	0
HLD	19	0	2	48
HLD	19	96	2	48
HLD	19	192	1	48
HLD	19	192	3	48
HLD	19	288	1	48
HLD	19	288	3	48
TAP	20	0	3
TAP	20	48	4
STR	20	96	5
SCL	20	96	5	96	48	2
STR	20	192	0
SI_	20	192	0	96	48	4
TAP	20	288	7
HLD	21	0	5	48
HLD	21	96	5	48
HLD	21	192	4	48
HLD	21	192	6	48
HLD	21	288	4	48
HLD	21	288	6	48
STR	22	0	3
SCL	22	0	3	96	192	4
TAP	22	96	4
HLD	23	0	5	48
HLD	23	96	4	48
HLD	23	96	6	48
HLD	23	192	2	48
HLD	23	288	1	48
HLD	23	288	3	48
STR	24	0	4
SCR	24	0	4	96	192	3
TAP	24	96	3
BRK	25	0	1
BRK	25	0	6
TAP	25	96	3
TAP	25	96	4
TAP	25	128	3
TAP	25	128	4
TAP	25	160	3
TAP	25	160	4
TAP	25	192	2
TAP	25	192	5
TAP	25	288	0
TAP	25	288	7
TAP	26	0	4
STR	26	0	6
SXR	26	0	6	96	192	3
TAP	26	96	0
TAP	26	192	1
TAP	26	288	2
STR	27	0	1
SXL	27	0	1	96	192	4
TAP	27	0	3
TAP	27	96	7
TAP	27	192	6
TAP	27	288	5
STR	28	0	5
SCR	28	0	5	96	48	0
TAP	28	144	1
STR	28	192	2
SCL	28	192	2	96	48	7
HLD	29	0	5	48
HLD	29	96	4	48
HLD	29	96	6	48
HLD	29	192	2	48
HLD	29	288	1	48
HLD	29	288	3	48
TAP	30	0	6
TAP	30	48	5
TAP	30	96	4
TAP	30	96	6
TAP	30	144	7
TAP	30	192	1
TAP	30	240	2
TAP	30	288	1
TAP	30	288	3
TAP	30	336	0
TAP	31	0	6
TAP	31	48	5
TAP	31	96	4
TAP	31	96	6
TAP	31	144	7
TAP	31	192	1
TAP	31	240	2
TAP	31	288	1
TAP	31	288	3
TAP	31	336	0
HLD	32	0	1	288
STR	32	0	7
SXL	32	0	7	96	144	4
TAP	33	0	1
TAP	33	0	3
TAP	33	48	2
TAP	33	96	4
TAP	33	96	6
TAP	33	144	5
STR	33	192	0
SI_	33	192	0	96	48	4
STR	33	192	7
SI_	33	192	7	96	48	3
HLD	34	0	1	96
BST	34	0	3
SI_	34	0	3	96	48	7
TAP	34	192	0
TAP	34	224	0
TAP	34	256	7
TAP	34	288	7
HLD	35	0	2	48
HLD	35	0	6	48
HLD	35	72	1	48
HLD	35	72	5	48
TAP	35	144	0
TAP	35	144	4
TAP	35	192	7
TAP	35	216	3
TAP	35	240	7
TAP	35	264	3
TAP	35	288	7
STR	36	0	1
SI_	36	0	1	96	48	5
HLD	36	0	7	96
TAP	36	192	3
TAP	36	192	7
TAP	36	240	2
TAP	36	240	6
TAP	36	288	1
TAP	36	288	5
STR	37	0	0
SLR	37	0	0	96	96	6
STR	37	0	4
SLR	37	0	4	96	96	2
BRK	37	288	1
BRK	37	288	5
STR	38	0	3
SUL	38	0	3	96	48	7
STR	38	0	7
SUL	38	0	7	96	48	3
HLD	38	192	0	48
HLD	38	192	4	48
HLD	38	264	1	48
HLD	38	264	5	48
TAP	38	336	2
TAP	38	336	6
STR	39	0	3
SXR	39	0	3	96	48	1
STR	39	0	7
SXR	39	0	7	96	48	5
TAP	39	192	4
TAP	39	224	4
TAP	39	256	3
TAP	39	288	3
STR	40	0	1
SLR	40	0	1	96	96	7
TAP	40	0	5
TAP	40	96	4
TAP	40	144	5
HLD	40	192	6	96
TAP	40	288	0
TAP	40	320	0
TAP	40	352	7
STR	41	0	7
SXL	41	0	7	96	120	3
SXR	41	0	7	96	120	3
BRK	41	288	1
BRK	41	288	5
STR	42	0	2
SI_	42	0	2	96	48	7
TAP	42	48	6
TAP	42	96	5
TAP	42	144	6
STR	42	192	2
SI_	42	192	2	96	48	7
TAP	42	240	5
TAP	42	288	4
TAP	42	336	5
STR	43	0	2
SI_	43	0	2	96	48	7
TAP	43	48	4
TAP	43	96	3
TAP	43	144	4
STR	43	192	0
SF_	43	192	0	96	48	4
STR	44	0	5
SI_	44	0	5	96	48	0
TAP	44	48	1
TAP	44	96	2
TAP	44	144	1
STR	44	192	5
SI_	44	192	5	96	48	0
TAP	44	240	2
TAP	44	288	3
TAP	44	336	2
STR	45	0	5
SI_	45	0	5	96	48	0
TAP	45	48	3
TAP	45	96	4
TAP	45	144	3
STR	45	192	7
SF_	45	192	7	96	48	3
STR	46	0	0
SUR	46	0	0	96	48	4
TAP	46	48	7
TAP	46	96	6
TAP	46	144	5
STR	46	192	4
SUR	46	192	4	96	48	0
TAP	46	240	3
TAP	46	288	2
STR	47	0	0
SCR	47	0	0	96	96	4
STR	47	96	4
SCR	47	96	4	96	96	0
STR	47	192	0
SF_	47	192	0	96	48	4
STR	48	0	7
SUL	48	0	7	96	48	3
TAP	48	48	0
TAP	48	96	1
TAP	48	144	2
STR	48	192	3
SUL	48	192	3	96	48	7
TAP	48	240	4
TAP	48	288	5
STR	49	0	7
SI_	49	0	7	96	96	1
STR	49	96	1
SV_	49	96	1	96	96	2
STR	49	192	2
SLR	49	192	2	96	96	7
STR	49	288	7
SXL	49	288	7	96	144	4
HLD	50	0	3	192
BRK	50	288	1
BRK	50	288	6
BRK	51	0	0
TAP	51	0	5
TAP	51	72	2
BRK	51	72	6
BRK	51	144	1
TAP	51	144	4
TAP	51	216	3
BRK	51	216	7
BRK	51	288	2
TAP	51	288	5
TAP	51	336	3
BRK	51	336	4
BST	52	0	1
SI_	52	0	1	96	48	6
HLD	52	0	7	96
TAP	52	96	1
HLD	52	192	0	96
BST	52	192	5
SI_	52	192	5	96	48	2
TAP	52	288	5
TAP	53	0	1
TAP	53	24	0
TAP	53	48	1
TAP	53	72	0
HLD	53	96	2	48
HLD	53	144	3	48
HLD	53	192	4	48
HLD	53	240	5	48
HLD	53	288	6	48
TAP	53	336	7
HLD	54	0	0	96
BST	54	0	6
SI_	54	0	6	96	48	1
TAP	54	96	6
BST	54	192	2
SI_	54	192	2	96	48	5
HLD	54	192	7	96
TAP	54	288	2
TAP	55	0	6
TAP	55	24	7
HLD	55	48	6	48
HLD	55	96	5	48
HLD	55	144	4	48
HLD	55	192	3	48
HLD	55	240	2	48
HLD	55	288	1	48
TAP	55	336	0
BST	56	0	1
SI_	56	0	1	96	48	6
HLD	56	0	7	96
TAP	56	96	1
HLD	56	192	0	96
BST	56	192	5
SI_	56	192	5	96	48	2
TAP	56	288	5
TAP	57	0	1
TAP	57	24	0
TAP	57	48	1
TAP	57	72	0
HLD	57	96	2	48
HLD	57	144	3	48
HLD	57	192	4	48
HLD	57	240	5	48
HLD	57	288	6	48
TAP	57	336	7
HLD	58	0	0	96
BST	58	0	6
SI_	58	0	6	96	48	1
TAP	58	96	6
BST	58	192	2
SI_	58	192	2	96	48	5
HLD	58	192	7	96
TAP	58	288	2
TAP	59	0	6
TAP	59	24	7
TAP	59	48	6
TAP	59	72	7
TAP	59	96	6
TAP	59	144	0
TAP	59	144	5
TAP	59	192	3
TAP	59	216	4
TAP	59	240	3
TAP	59	288	7
TAP	59	312	0
TAP	59	336	7
BST	60	0	5
SI_	60	0	5	96	48	2
BST	60	0	6
SI_	60	0	6	96	48	1
TAP	60	96	5
TAP	60	96	6
BST	60	192	1
SI_	60	192	1	96	48	6
BST	60	192	2
SI_	60	192	2	96	48	5
TAP	60	288	1
TAP	60	288	2
TAP	61	0	6
TAP	61	24	7
TAP	61	48	6
TAP	61	72	7
HLD	61	96	6	48
HLD	61	144	4	48
HLD	61	192	3	48
HLD	61	240	1	48
HLD	61	288	7	48
TAP	61	336	0
BST	62	0	1
SI_	62	0	1	96	48	6
BST	62	0	2
SI_	62	0	2	96	48	5
TAP	62	96	1
TAP	62	96	2
BST	62	192	5
SI_	62	192	5	96	48	2
BST	62	192	6
SI_	62	192	6	96	48	1
TAP	62	288	5
TAP	62	288	6
TAP	63	0	1
TAP	63	24	0
HLD	63	48	1	48
HLD	63	96	2	48
HLD	63	144	3	48
HLD	63	192	4	48
HLD	63	240	5	48
HLD	63	288	6	48
TAP	63	336	7
BST	64	0	5
SI_	64	0	5	96	48	2
BST	64	0	6
SI_	64	0	6	96	48	1
TAP	64	96	5
TAP	64	96	6
BST	64	192	1
SI_	64	192	1	96	48	6
BST	64	192	2
SI_	64	192	2	96	48	5
TAP	64	288	1
TAP	64	288	2
TAP	65	0	6
TAP	65	24	7
TAP	65	48	6
TAP	65	72	7
HLD	65	96	6	48
HLD	65	144	4	48
HLD	65	192	3	48
HLD	65	240	1	48
HLD	65	288	7	48
TAP	65	336	0
BST	66	0	1
SI_	66	0	1	96	48	6
BST	66	0	2
SI_	66	0	2	96	48	5
TAP	66	96	1
TAP	66	96	2
BST	66	192	5
SI_	66	192	5	96	48	2
BST	66	192	6
SI_	66	192	6	96	48	1
TAP	66	288	5
TAP	66	288	6
TAP	67	0	1
TAP	67	24	0
TAP	67	48	1
TAP	67	72	0
TAP	67	96	1
TAP	67	144	2
TAP	67	144	7
TAP	67	192	6
TAP	67	216	4
TAP	67	240	5
TAP	67	288	1
TAP	67	312	3
TAP	67	336	2
BRK	68	0	0
HLD	68	0	4	96
TAP	68	96	3
TAP	68	120	5
TAP	68	144	3
TAP	68	168	5
TAP	68	192	2
TAP	68	216	6
TAP	68	240	2
TAP	68	264	6
TAP	68	288	1
TAP	68	312	7
TAP	68	336	1
TAP	68	360	7
TAP	69	0	0
TAP	69	24	0
TAP	69	48	0
TAP	69	72	0
TAP	69	96	0
TAP	69	144	0
TAP	69	144	7
TAP	69	192	3
TAP	69	192	5
TAP	69	240	6
TAP	69	240	7
TAP	69	288	2
TAP	69	288	4
TAP	69	336	0
TAP	69	336	1
HLD	70	0	3	96
BRK	70	0	7
TAP	70	96	4
TAP	70	120	2
TAP	70	144	4
TAP	70	168	2
TAP	70	192	5
TAP	70	216	1
TAP	70	240	5
TAP	70	264	1
TAP	70	288	6
TAP	70	312	0
TAP	70	336	6
TAP	70	360	0
TAP	71	0	7
TAP	71	24	7
TAP	71	48	7
TAP	71	96	4
TAP	71	96	6
TAP	71	144	5
TAP	71	144	7
TAP	71	192	0
TAP	71	192	6
TAP	71	240	1
TAP	71	240	7
TAP	71	288	0
TAP	71	288	2
TAP	71	336	1
TAP	71	336	3
BRK	72	0	0
HLD	72	0	4	96
TAP	72	96	3
TAP	72	120	5
TAP	72	144	3
TAP	72	168	5
TAP	72	192	2
TAP	72	216	6
TAP	72	240	2
TAP	72	264	6
TAP	72	288	1
TAP	72	312	7
TAP	72	336	1
TAP	72	360	7
TAP	73	0	0
TAP	73	24	0
TAP	73	48	0
TAP	73	72	0
TAP	73	96	0
TAP	73	144	0
TAP	73	144	7
TAP	73	192	2
TAP	73	192	4
TAP	73	240	0
TAP	73	240	1
TAP	73	288	3
TAP	73	288	5
TAP	73	336	6
TAP	73	336	7
BRK	74	0	1
TAP	74	24	0
TAP	74	48	2
TAP	74	72	7
TAP	74	96	3
TAP	74	120	6
TAP	74	144	4
TAP	74	168	5
BRK	74	192	7
TAP	74	216	6
TAP	74	240	0
TAP	74	264	5
TAP	74	288	1
TAP	74	312	4
TAP	74	336	2
TAP	74	360	3
BRK	75	0	0
TAP	75	24	7
TAP	75	48	1
TAP	75	72	6
BRK	75	96	0
TAP	75	120	7
TAP	75	144	1
TAP	75	168	6
BRK	75	192	0
TAP	75	204	1
TAP	75	216	2
TAP	75	228	3
TAP	75	240	4
TAP	75	252	5
TAP	75	264	6
TAP	75	276	7
BRK	75	288	0
TAP	75	300	1
TAP	75	312	2
TAP	75	324	3
TAP	75	336	4
TAP	75	348	5
TAP	75	360	6
TAP	75	372	7
BST	76	0	0
SCR	76	0	0	96	672	0
HLD	76	0	4	768

T_REC_TAP	400
T_REC_BRK	33
T_REC_XTP	0
T_REC_HLD	89
T_REC_XHO	0
T_REC_STR	43
T_REC_BST	27
T_REC_XST	0
T_REC_TTP	0
T_REC_THO	0
T_REC_SLD	71
T_REC_ALL	663
T_NUM_TAP	443
T_NUM_BRK	60
T_NUM_HLD	89
T_NUM_SLD	71
T_NUM_ALL	663
T_JUDGE_TAP	503
T_JUDGE_HLD	134
T_JUDGE_SLD	71
T_JUDGE_ALL	708
TTM_EACHPAIRS	104
TTM_SCR_TAP	221500
TTM_SCR_BRK	156000
TTM_SCR_HLD	89000
TTM_SCR_SLD	106500
TTM_SCR_ALL	573000
TTM_SCR_S	550000
TTM_SCR_SS	567000
TTM_RAT_ACV	10105

