VERSION	0.00.00	1.03.00
FES_MODE	0
BPM_DEF	170.000	170.000	173.000	170.000
MET_DEF	4	4
RESOLUTION	384
CLK_DEF	384
COMPATIBLE_CODE	MA2

BPM	0	0	170.000
BPM	42	192	170.100
BPM	43	0	170.200
BPM	44	0	170.300
BPM	44	192	170.400
BPM	45	0	170.500
BPM	46	0	170.600
BPM	46	192	170.700
BPM	47	0	170.800
BPM	47	192	170.900
BPM	48	0	171.000
BPM	48	96	171.100
BPM	48	192	171.200
BPM	48	288	171.300
BPM	49	0	171.400
BPM	49	96	171.500
BPM	49	192	171.600
BPM	49	240	171.700
BPM	49	288	171.800
BPM	49	336	171.900
BPM	50	0	172.000
BPM	50	96	172.100
BPM	50	192	172.200
BPM	50	288	172.300
BPM	51	0	172.400
BPM	51	96	172.500
BPM	51	192	172.600
BPM	51	240	172.700
BPM	51	288	172.800
BPM	51	336	172.900
BPM	52	0	173.000

HLD	2	0	2	1248
BRK	2	0	5
TAP	2	96	5
TAP	2	192	3
TAP	2	288	3
TAP	3	0	5
TAP	3	96	3
TAP	3	192	6
TAP	3	288	3
TAP	4	0	5
TAP	4	96	3
TAP	4	192	1
TAP	4	288	3
TAP	5	0	5
TAP	5	96	3
TAP	5	192	3
TAP	5	192	4
TAP	5	240	3
TAP	5	240	4
TAP	5	288	3
TAP	5	288	4
TAP	6	0	2
HLD	6	0	5	1248
TAP	6	96	2
TAP	6	192	4
TAP	6	288	4
TAP	7	0	2
TAP	7	96	4
TAP	7	192	1
TAP	7	288	4
TAP	8	0	2
TAP	8	96	4
TAP	8	192	6
TAP	8	288	4
TAP	9	0	2
TAP	9	96	4
TAP	9	192	3
TAP	9	224	3
TAP	9	256	4
TAP	9	288	4
TAP	10	0	3
HLD	10	0	4	96
TAP	10	96	3
TAP	10	192	4
HLD	10	192	5	96
TAP	10	288	4
TAP	11	0	5
HLD	11	0	6	96
TAP	11	96	5
TAP	11	192	0
TAP	11	192	7
TAP	11	288	1
TAP	11	288	6
HLD	12	0	2	96
TAP	12	0	3
TAP	12	96	3
HLD	12	192	1	96
TAP	12	192	2
TAP	12	288	2
HLD	13	0	0	96
TAP	13	0	1
TAP	13	96	1
TAP	13	192	6
TAP	13	192	7
TAP	13	288	0
TAP	13	288	5
TAP	14	0	6
TAP	14	48	6
TAP	14	96	3
TAP	14	144	3
TAP	14	192	5
TAP	14	240	5
TAP	14	288	2
TAP	14	336	2
TAP	15	0	4
TAP	15	48	4
TAP	15	96	1
TAP	15	144	1
TAP	15	192	7
TAP	15	240	7
TAP	15	288	0
TAP	15	336	0
TAP	16	0	5
TAP	16	48	5
TAP	16	96	2
TAP	16	144	2
TAP	16	192	4
TAP	16	216	3
TAP	16	240	4
TAP	16	264	3
TAP	16	288	4
TAP	16	312	3
TAP	16	336	4
TAP	16	360	3
BST	17	0	4
SXR	17	0	4	96	192	7
TAP	18	0	1
TAP	18	96	2
TAP	18	96	3
TAP	18	192	4
TAP	18	192	5
TAP	18	288	6
HLD	19	0	2	192
TAP	19	0	3
TAP	19	96	1
TAP	19	192	3
TAP	19	288	1
TAP	19	288	4
TAP	20	0	5
TAP	20	96	6
TAP	20	96	7
TAP	20	192	0
TAP	20	192	1
TAP	20	288	2
HLD	21	0	6	192
TAP	21	0	7
TAP	21	96	5
TAP	21	192	7
TAP	21	288	0
TAP	21	288	5
HLD	22	0	2	192
TAP	22	0	3
TAP	22	96	1
TAP	22	192	3
TAP	22	288	3
TAP	22	288	4
TAP	23	0	4
HLD	23	0	5	192
TAP	23	96	6
TAP	23	192	4
TAP	23	288	2
TAP	23	288	3
HLD	24	0	1	96
HLD	24	96	3	96
HLD	24	192	4	96
TAP	24	288	6
STR	25	0	7
SSR	25	0	7	96	120	3
BRK	25	288	1
BRK	25	288	4
TAP	26	0	2
HLD	26	0	3	192
TAP	26	96	1
TAP	26	192	2
TAP	26	288	4
TAP	26	288	5
TAP	27	0	2
HLD	27	0	3	192
TAP	27	96	0
TAP	27	192	2
TAP	27	288	4
TAP	27	288	6
STR	28	0	1
SI_	28	0	1	96	48	3
STR	28	0	6
SI_	28	0	6	96	48	4
BRK	28	192	1
BRK	28	192	6
TAP	29	0	4
TAP	29	0	5
TAP	29	96	2
TAP	29	96	3
TAP	29	192	4
TAP	29	192	6
TAP	29	288	1
TAP	29	288	5
HLD	30	0	2	288
TAP	30	0	3
TAP	30	96	5
TAP	30	192	3
TAP	30	288	6
TAP	31	0	4
HLD	31	0	5	288
TAP	31	96	1
TAP	31	192	4
TAP	31	288	0
TAP	32	0	2
TAP	32	0	3
TAP	32	96	4
TAP	32	96	6
TAP	32	192	1
TAP	32	192	3
TAP	32	288	4
TAP	32	288	5
HLD	33	0	2	96
HLD	33	0	5	96
BRK	33	192	3
BRK	33	192	4
BRK	33	288	1
BRK	33	288	6
HLD	34	0	0	192
STR	34	0	7
SUL	34	0	7	96	96	3
STR	35	0	0
SUR	35	0	0	96	96	4
HLD	35	0	7	192
HLD	36	0	0	192
STR	36	0	7
SUL	36	0	7	96	96	2
STR	37	0	0
SUR	37	0	0	96	96	5
HLD	37	0	7	192
HLD	38	0	3	192
STR	38	0	4
SUR	38	0	4	96	96	1
STR	39	0	3
SUL	39	0	3	96	96	6
HLD	39	0	4	192
HLD	40	0	4	192
STR	40	0	5
SUR	40	0	5	96	96	2
STR	41	0	2
SUL	41	0	2	96	96	5
STR	41	0	3
SXL	41	0	3	96	96	5
TAP	41	288	4
TAP	41	288	6
TAP	42	0	1
TAP	42	0	3
TAP	42	96	1
TAP	42	96	3
TAP	42	192	3
TAP	42	192	5
TAP	42	288	3
TAP	42	288	5
TAP	43	0	1
TAP	43	0	3
TAP	43	96	3
TAP	43	96	5
STR	43	192	1
SI_	43	192	1	96	48	5
TAP	43	192	3
TAP	44	0	4
TAP	44	0	6
TAP	44	96	4
TAP	44	96	6
TAP	44	192	2
TAP	44	192	4
TAP	44	288	2
TAP	44	288	4
TAP	45	0	4
TAP	45	0	6
TAP	45	96	2
TAP	45	96	4
TAP	45	192	4
STR	45	192	6
SI_	45	192	6	96	48	2
HLD	46	0	1	96
TAP	46	0	3
TAP	46	96	3
TAP	46	192	3
HLD	46	192	5	96
TAP	46	288	3
HLD	47	0	1	96
TAP	47	0	3
TAP	47	96	3
TAP	47	192	3
TAP	47	192	5
TAP	47	288	1
TAP	47	288	3
TAP	48	0	4
HLD	48	0	6	96
TAP	48	96	4
HLD	48	192	2	96
TAP	48	192	4
TAP	48	288	4
TAP	49	0	4
HLD	49	0	6	96
TAP	49	96	4
BRK	49	192	2
BRK	49	192	3
BRK	49	288	0
BST	49	288	6
SCR	49	288	6	96	192	3
TAP	50	288	0
TAP	50	288	7
STR	51	0	1
SI_	51	0	1	96	48	4
STR	51	96	7
SI_	51	96	7	96	48	3
TAP	51	192	0
BRK	51	288	1
BRK	51	288	5
BST	52	0	0
SI_	52	0	0	96	48	5
HLD	52	0	6	384
BST	52	192	4
SI_	52	192	4	96	48	1
TAP	53	0	0
TAP	53	96	2
TAP	53	144	2
TAP	53	192	1
TAP	53	192	3
TAP	53	288	4
TAP	53	288	6
HLD	54	0	1	384
BST	54	0	7
SI_	54	0	7	96	48	2
BST	54	192	3
SI_	54	192	3	96	48	6
TAP	55	0	7
TAP	55	96	5
TAP	55	144	5
TAP	55	192	4
TAP	55	192	6
TAP	55	288	1
TAP	55	288	3
BST	56	0	2
SI_	56	0	2	96	48	5
HLD	56	0	4	384
BST	56	192	6
SI_	56	192	6	96	48	1
TAP	57	0	2
TAP	57	96	6
TAP	57	144	6
TAP	57	192	5
TAP	57	192	7
TAP	57	288	0
TAP	57	288	2
BST	58	0	1
SI_	58	0	1	96	48	6
HLD	58	0	4	384
BST	58	192	5
SI_	58	192	5	96	48	2
TAP	59	0	1
TAP	59	96	6
TAP	59	144	6
TAP	59	192	5
TAP	59	192	7
BRK	59	288	1
BRK	59	288	2
BST	60	0	3
SI_	60	0	3	96	48	7
HLD	60	0	5	384
BST	60	192	6
SI_	60	192	6	96	48	2
TAP	61	0	1
TAP	61	96	0
TAP	61	144	1
TAP	61	192	2
TAP	61	192	3
TAP	61	288	5
TAP	61	288	7
HLD	62	0	2	384
BST	62	0	4
SI_	62	0	4	96	48	0
BST	62	192	1
SI_	62	192	1	96	48	5
TAP	63	0	6
TAP	63	96	7
TAP	63	144	6
TAP	63	192	4
TAP	63	192	5
TAP	63	288	0
TAP	63	288	2
BST	64	0	2
SV_	64	0	2	96	48	7
HLD	64	0	4	384
BST	64	192	6
SV_	64	192	6	96	48	3
TAP	65	0	2
TAP	65	96	0
TAP	65	96	7
TAP	65	144	1
TAP	65	192	2
TAP	65	192	3
TAP	65	288	6
TAP	65	288	7
HLD	66	0	3	384
BST	66	0	5
SV_	66	0	5	96	48	0
BST	66	192	1
SV_	66	192	1	96	48	4
TAP	67	0	5
TAP	67	96	2
TAP	67	96	3
TAP	67	144	1
TAP	67	192	0
TAP	67	192	7
BRK	67	288	1
BRK	67	288	5
BST	68	0	3
SCL	68	0	3	96	48	7
SCR	68	0	3	96	48	7
TAP	68	192	0
TAP	68	192	6
TAP	68	240	1
TAP	68	240	5
TAP	68	288	2
TAP	68	288	4
HLD	69	0	4	48
HLD	69	0	5	48
HLD	69	96	2	48
HLD	69	96	3	48
HLD	69	192	4	48
HLD	69	192	6	48
TAP	69	288	1
TAP	69	288	3
BST	70	0	0
SI_	70	0	0	96	48	3
BST	70	0	5
SCL	70	0	5	96	48	3
TAP	70	192	2
TAP	70	192	4
TAP	70	240	1
TAP	70	240	5
TAP	70	288	0
TAP	70	288	6
HLD	71	0	1	48
HLD	71	0	3	48
HLD	71	96	4	48
HLD	71	96	6	48
HLD	71	192	0	48
HLD	71	192	1	48
TAP	71	288	2
TAP	71	288	7
BST	72	0	0
SI_	72	0	0	96	48	4
TAP	72	0	7
STR	72	96	6
SI_	72	96	6	96	48	3
STR	72	192	2
SI_	72	192	2	96	48	5
TAP	72	288	6
BST	73	0	7
SI_	73	0	7	96	48	3
STR	73	96	1
SI_	73	96	1	96	48	4
STR	73	192	5
SI_	73	192	5	96	48	2
TAP	73	288	1
BRK	74	0	2
TAP	74	48	2
TAP	74	96	3
TAP	74	144	1
BRK	74	192	5
TAP	74	240	5
TAP	74	288	4
TAP	74	336	6
BRK	75	0	0
TAP	75	24	7
TAP	75	48	0
TAP	75	72	7
BRK	75	96	0
TAP	75	120	7
TAP	75	144	0
TAP	75	168	7
BRK	75	192	0
TAP	75	216	7
TAP	75	240	0
TAP	75	264	7
BRK	75	288	0
TAP	75	312	7
TAP	75	336	0
TAP	75	360	7
BST	76	0	0
SCR	76	0	0	96	480	7

T_REC_TAP	290
T_REC_BRK	24
T_REC_XTP	0
T_REC_HLD	54
T_REC_XHO	0
T_REC_STR	20
T_REC_BST	24
T_REC_XST	0
T_REC_TTP	0
T_REC_THO	0
T_REC_SLD	45
T_REC_ALL	457
T_NUM_TAP	310
T_NUM_BRK	48
T_NUM_HLD	54
T_NUM_SLD	45
T_NUM_ALL	457
T_JUDGE_TAP	358
T_JUDGE_HLD	226
T_JUDGE_SLD	45
T_JUDGE_ALL	629
TTM_EACHPAIRS	124
TTM_SCR_TAP	155000
TTM_SCR_BRK	124800
TTM_SCR_HLD	54000
TTM_SCR_SLD	67500
TTM_SCR_ALL	401300
TTM_SCR_S	384650
TTM_SCR_SS	396500
TTM_RAT_ACV	10121

