VERSION	0.00.00	1.03.00
FES_MODE	0
BPM_DEF	170.000	170.000	173.000	170.000
MET_DEF	4	4
RESOLUTION	384
CLK_DEF	384
COMPATIBLE_CODE	MA2

BPM	0	0	170.000
BPM	42	192	170.100
BPM	43	0	170.200
BPM	44	0	170.300
BPM	44	192	170.400
BPM	45	0	170.500
BPM	46	0	170.600
BPM	46	192	170.700
BPM	47	0	170.800
BPM	47	192	170.900
BPM	48	0	171.000
BPM	48	96	171.100
BPM	48	192	171.200
BPM	48	288	171.300
BPM	49	0	171.400
BPM	49	96	171.500
BPM	49	192	171.600
BPM	49	240	171.700
BPM	49	288	171.800
BPM	49	336	171.900
BPM	50	0	172.000
BPM	50	96	172.100
BPM	50	192	172.200
BPM	50	288	172.300
BPM	51	0	172.400
BPM	51	96	172.500
BPM	51	192	172.600
BPM	51	240	172.700
BPM	51	288	172.800
BPM	51	336	172.900
BPM	52	0	173.000

TAP	2	0	2
TAP	2	96	3
TAP	2	192	5
TAP	2	288	4
TAP	3	0	2
TAP	3	96	3
TAP	3	192	3
TAP	3	192	4
TAP	4	0	5
TAP	4	96	4
TAP	4	192	2
TAP	4	288	3
TAP	5	0	5
TAP	5	96	4
TAP	5	192	3
TAP	5	192	4
TAP	6	0	1
TAP	6	96	0
TAP	6	192	6
TAP	6	288	7
TAP	7	0	1
TAP	7	96	0
TAP	7	192	0
TAP	7	192	7
TAP	8	0	6
TAP	8	96	7
TAP	8	192	1
TAP	8	288	0
TAP	9	0	6
TAP	9	96	7
TAP	9	192	0
TAP	9	192	7
BRK	9	288	1
BRK	9	288	6
TAP	10	0	3
TAP	10	96	2
TAP	10	96	4
TAP	10	192	4
TAP	10	288	3
TAP	10	288	5
TAP	11	0	3
TAP	11	96	2
TAP	11	96	4
TAP	11	192	1
TAP	11	192	5
TAP	12	0	4
TAP	12	96	3
TAP	12	96	5
TAP	12	192	3
TAP	12	288	2
TAP	12	288	4
TAP	13	0	4
TAP	13	96	3
TAP	13	96	5
TAP	13	192	2
TAP	13	192	6
TAP	14	0	3
TAP	14	96	2
TAP	14	192	1
TAP	14	288	0
TAP	15	0	4
TAP	15	96	5
TAP	15	192	6
TAP	15	288	7
STR	16	0	0
SI_	16	0	0	96	96	3
STR	16	192	4
SI_	16	192	4	96	96	7
STR	17	0	0
SSL	17	0	0	96	192	4
HLD	18	0	5	96
TAP	18	96	4
TAP	18	192	2
TAP	18	192	3
TAP	18	288	1
TAP	18	288	4
STR	19	0	0
SUL	19	0	0	96	96	4
HLD	20	0	2	96
TAP	20	96	3
TAP	20	192	4
TAP	20	192	5
TAP	20	288	3
TAP	20	288	6
STR	21	0	7
SUR	21	0	7	96	96	3
HLD	22	0	3	96
HLD	22	0	4	96
TAP	22	192	2
TAP	22	192	3
TAP	22	288	2
TAP	22	288	3
HLD	23	0	3	96
HLD	23	0	4	96
TAP	23	192	4
TAP	23	192	5
TAP	23	288	4
TAP	23	288	5
STR	24	0	3
SI_	24	0	3	96	96	7
STR	24	0	4
SI_	24	0	4	96	96	0
HLD	25	0	1	96
HLD	25	0	6	96
TAP	25	192	3
TAP	25	192	4
TAP	25	288	2
TAP	25	288	5
HLD	26	0	1	96
TAP	26	96	0
TAP	26	192	6
TAP	26	192	7
TAP	26	288	0
TAP	26	288	5
HLD	27	0	6	96
TAP	27	96	7
TAP	27	192	0
TAP	27	192	1
TAP	27	288	2
TAP	27	288	7
STR	28	0	3
SCL	28	0	3	96	96	0
STR	28	0	4
SCR	28	0	4	96	96	7
HLD	29	0	2	96
HLD	29	0	6	96
HLD	29	192	1	96
HLD	29	192	5	96
HLD	30	0	0	96
HLD	30	0	7	96
TAP	30	192	6
TAP	30	192	7
TAP	30	288	6
TAP	30	288	7
HLD	31	0	0	96
HLD	31	0	7	96
TAP	31	192	0
TAP	31	192	1
TAP	31	288	0
TAP	31	288	1
STR	32	0	0
SCR	32	0	0	96	192	4
HLD	33	0	1	96
HLD	33	0	6	96
TAP	33	192	2
TAP	33	288	3
HLD	34	0	4	96
HLD	34	0	5	96
TAP	34	192	3
TAP	34	192	6
TAP	34	288	3
TAP	34	288	6
HLD	35	0	2	96
HLD	35	0	3	96
TAP	35	192	1
TAP	35	192	4
TAP	35	288	1
TAP	35	288	4
HLD	36	0	3	96
HLD	36	0	4	96
TAP	36	192	3
TAP	36	240	4
TAP	36	288	3
HLD	37	0	2	96
HLD	37	0	5	96
TAP	37	192	1
TAP	37	192	6
HLD	38	0	0	96
HLD	38	0	1	96
TAP	38	192	2
TAP	38	192	7
TAP	38	288	2
TAP	38	288	7
HLD	39	0	6	96
HLD	39	0	7	96
TAP	39	192	0
TAP	39	192	5
TAP	39	288	0
TAP	39	288	5
HLD	40	0	0	96
HLD	40	0	7	96
TAP	40	192	0
TAP	40	240	7
TAP	40	288	0
HLD	41	0	1	96
HLD	41	0	6	96
TAP	41	192	2
TAP	41	192	5
TAP	42	0	4
TAP	42	0	5
TAP	42	96	6
TAP	42	192	4
TAP	42	192	5
TAP	42	288	6
TAP	43	0	4
TAP	43	0	5
TAP	43	96	6
TAP	43	192	4
TAP	43	192	5
TAP	43	288	6
TAP	44	0	2
TAP	44	0	3
TAP	44	96	1
TAP	44	192	2
TAP	44	192	3
TAP	44	288	1
TAP	45	0	2
TAP	45	0	3
TAP	45	96	1
TAP	45	192	2
TAP	45	192	3
TAP	45	288	1
TAP	46	0	4
TAP	46	0	5
TAP	46	96	3
TAP	46	96	6
TAP	46	192	4
TAP	46	192	5
TAP	46	288	3
TAP	46	288	6
TAP	47	0	4
TAP	47	0	5
TAP	47	96	3
TAP	47	96	6
TAP	47	192	4
TAP	47	192	5
TAP	47	288	3
TAP	47	288	6
TAP	48	0	2
TAP	48	0	3
TAP	48	96	1
TAP	48	96	4
TAP	48	192	2
TAP	48	192	3
TAP	48	288	1
TAP	48	288	4
TAP	49	0	2
TAP	49	0	3
TAP	49	96	1
TAP	49	96	4
TAP	49	192	2
TAP	49	192	3
TAP	49	288	1
TAP	49	288	4
TAP	50	0	2
TAP	50	0	3
TAP	50	96	1
TAP	50	96	4
TAP	50	192	0
TAP	50	192	5
TAP	50	288	6
TAP	50	288	7
STR	51	0	0
SCR	51	0	0	96	192	5
TAP	52	0	6
TAP	52	0	7
TAP	52	96	0
TAP	52	96	1
TAP	52	192	6
TAP	52	192	7
TAP	52	288	0
TAP	52	288	1
TAP	53	0	6
TAP	53	0	7
TAP	53	96	0
TAP	53	96	5
HLD	53	192	1	96
HLD	53	192	4	96
TAP	54	0	2
TAP	54	0	3
TAP	54	96	4
TAP	54	96	5
TAP	54	192	2
TAP	54	192	3
TAP	54	288	4
TAP	54	288	5
TAP	55	0	2
TAP	55	0	3
TAP	55	96	1
TAP	55	96	4
HLD	55	192	2	96
HLD	55	192	5	96
TAP	56	0	4
TAP	56	0	5
TAP	56	96	2
TAP	56	96	3
TAP	56	192	4
TAP	56	192	5
TAP	56	288	2
TAP	56	288	3
TAP	57	0	4
TAP	57	0	5
TAP	57	96	3
TAP	57	96	6
HLD	57	192	2	96
HLD	57	192	7	96
TAP	58	0	0
TAP	58	0	1
TAP	58	96	6
TAP	58	96	7
TAP	58	192	0
TAP	58	192	1
TAP	58	288	6
TAP	58	288	7
TAP	59	0	0
TAP	59	0	1
TAP	59	96	2
TAP	59	96	7
BRK	59	192	3
BRK	59	192	6
TAP	60	0	6
TAP	60	0	7
TAP	60	48	6
TAP	60	48	7
TAP	60	96	6
TAP	60	96	7
TAP	60	192	0
TAP	60	192	1
TAP	60	240	0
TAP	60	240	1
TAP	60	288	0
TAP	60	288	1
HLD	61	0	1	96
HLD	61	96	0	96
TAP	61	192	7
TAP	62	0	4
TAP	62	0	5
TAP	62	48	4
TAP	62	48	5
TAP	62	96	4
TAP	62	96	5
TAP	62	192	2
TAP	62	192	3
TAP	62	240	2
TAP	62	240	3
TAP	62	288	2
TAP	62	288	3
HLD	63	0	5	96
HLD	63	96	4	96
TAP	63	192	3
TAP	64	0	1
TAP	64	0	7
TAP	64	48	1
TAP	64	48	7
TAP	64	96	1
TAP	64	96	7
TAP	64	192	0
TAP	64	192	6
TAP	64	240	0
TAP	64	240	6
TAP	64	288	0
TAP	64	288	6
HLD	65	0	1	96
HLD	65	96	0	96
TAP	65	192	7
TAP	66	0	3
TAP	66	0	5
TAP	66	48	3
TAP	66	48	5
TAP	66	96	3
TAP	66	96	5
TAP	66	192	2
TAP	66	192	4
TAP	66	240	2
TAP	66	240	4
TAP	66	288	2
TAP	66	288	4
HLD	67	0	5	96
HLD	67	96	4	96
TAP	67	192	3
STR	68	0	0
SI_	68	0	0	96	96	3
STR	68	192	7
SI_	68	192	7	96	96	4
TAP	69	0	3
TAP	69	48	3
TAP	69	96	4
TAP	69	144	4
TAP	69	192	2
TAP	69	192	5
TAP	69	288	1
TAP	69	288	6
STR	70	0	7
SI_	70	0	7	96	96	4
STR	70	192	0
SI_	70	192	0	96	96	3
TAP	71	0	4
TAP	71	48	4
TAP	71	96	3
TAP	71	144	3
TAP	71	192	2
TAP	71	192	5
TAP	71	288	1
TAP	71	288	6
STR	72	0	0
SI_	72	0	0	96	96	4
STR	72	192	7
SI_	72	192	7	96	96	3
TAP	73	0	2
TAP	73	48	2
TAP	73	96	3
TAP	73	144	3
TAP	73	192	2
TAP	73	192	4
TAP	73	288	1
TAP	73	288	5
STR	74	0	6
SI_	74	0	6	96	96	2
STR	74	192	1
SI_	74	192	1	96	96	5
HLD	75	0	4	96
HLD	75	96	3	96
HLD	75	192	2	96
TAP	75	288	1
BRK	76	0	0
BRK	76	0	7

T_REC_TAP	319
T_REC_BRK	6
T_REC_XTP	0
T_REC_HLD	53
T_REC_XHO	0
T_REC_STR	19
T_REC_BST	0
T_REC_XST	0
T_REC_TTP	0
T_REC_THO	0
T_REC_SLD	19
T_REC_ALL	416
T_NUM_TAP	338
T_NUM_BRK	6
T_NUM_HLD	53
T_NUM_SLD	19
T_NUM_ALL	416
T_JUDGE_TAP	344
T_JUDGE_HLD	106
T_JUDGE_SLD	19
T_JUDGE_ALL	469
TTM_EACHPAIRS	146
TTM_SCR_TAP	169000
TTM_SCR_BRK	15600
TTM_SCR_HLD	53000
TTM_SCR_SLD	28500
TTM_SCR_ALL	266100
TTM_SCR_S	257550
TTM_SCR_SS	265500
TTM_RAT_ACV	10022

