VERSION	0.00.00	1.03.00
FES_MODE	0
BPM_DEF	170.000	170.000	173.000	170.000
MET_DEF	4	4
RESOLUTION	384
CLK_DEF	384
COMPATIBLE_CODE	MA2

BPM	0	0	170.000
BPM	42	192	170.100
BPM	43	0	170.200
BPM	44	0	170.300
BPM	44	192	170.400
BPM	45	0	170.500
BPM	46	0	170.600
BPM	46	192	170.700
BPM	47	0	170.800
BPM	47	192	170.900
BPM	48	0	171.000
BPM	48	96	171.100
BPM	48	192	171.200
BPM	48	288	171.300
BPM	49	0	171.400
BPM	49	96	171.500
BPM	49	192	171.600
BPM	49	240	171.700
BPM	49	288	171.800
BPM	49	336	171.900
BPM	50	0	172.000
BPM	50	96	172.100
BPM	50	192	172.200
BPM	50	288	172.300
BPM	51	0	172.400
BPM	51	96	172.500
BPM	51	192	172.600
BPM	51	240	172.700
BPM	51	288	172.800
BPM	51	336	172.900
BPM	52	0	173.000

TAP	2	0	0
TAP	2	96	0
TAP	2	192	0
TAP	3	0	1
TAP	3	96	1
TAP	3	192	1
TAP	4	0	2
TAP	4	96	2
TAP	4	192	2
TAP	5	0	3
TAP	5	96	4
TAP	5	192	3
TAP	6	0	4
TAP	6	96	4
TAP	6	192	4
TAP	7	0	5
TAP	7	96	5
TAP	7	192	5
TAP	8	0	6
TAP	8	96	6
TAP	8	192	6
TAP	9	0	7
TAP	9	96	0
TAP	9	192	7
TAP	10	0	6
TAP	10	96	6
TAP	10	192	6
TAP	11	0	5
TAP	11	96	5
TAP	11	192	5
TAP	12	0	4
TAP	12	96	4
TAP	12	192	4
TAP	13	0	3
TAP	13	96	4
TAP	13	192	3
TAP	14	0	2
TAP	14	96	2
TAP	14	192	2
TAP	15	0	1
TAP	15	96	1
TAP	15	192	1
TAP	16	0	0
TAP	16	96	0
TAP	16	192	0
BRK	17	0	0
BRK	17	0	7
HLD	18	0	1	192
TAP	19	0	2
TAP	19	96	2
TAP	19	192	2
HLD	20	0	3	192
TAP	21	0	4
TAP	21	96	4
TAP	21	192	4
HLD	22	0	5	192
TAP	23	0	6
TAP	23	96	6
TAP	23	192	6
HLD	24	0	7	192
TAP	25	0	0
TAP	25	192	0
TAP	25	192	7
HLD	26	0	6	192
TAP	27	0	5
TAP	27	96	5
TAP	27	192	5
HLD	28	0	4	192
TAP	29	0	3
TAP	29	96	3
TAP	29	192	3
HLD	30	0	2	192
TAP	31	0	1
TAP	31	96	1
TAP	31	192	1
HLD	32	0	0	192
TAP	33	0	0
TAP	33	0	7
TAP	33	192	0
TAP	33	192	7
STR	34	0	0
SI_	34	0	0	96	288	4
STR	36	0	7
SI_	36	0	7	96	288	3
STR	38	0	0
SI_	38	0	0	96	288	5
STR	40	0	7
SI_	40	0	7	96	288	2
TAP	42	0	0
TAP	42	96	0
TAP	42	192	0
TAP	43	0	1
TAP	43	96	1
TAP	43	192	0
TAP	43	192	1
TAP	44	0	2
TAP	44	96	2
TAP	44	192	2
TAP	45	0	3
TAP	45	96	3
TAP	45	192	3
TAP	45	192	4
TAP	46	0	4
TAP	46	96	4
TAP	46	192	4
TAP	47	0	5
TAP	47	96	5
TAP	47	192	4
TAP	47	192	5
TAP	48	0	6
TAP	48	96	6
TAP	48	192	6
TAP	49	0	7
TAP	49	96	7
TAP	49	192	0
TAP	49	192	7
HLD	50	0	0	384
HLD	50	0	7	384
BRK	52	0	7
TAP	52	96	7
TAP	52	192	6
TAP	52	288	6
TAP	53	0	5
TAP	53	96	5
TAP	53	192	4
TAP	53	192	5
TAP	54	0	3
TAP	54	96	3
TAP	54	192	2
TAP	54	288	2
TAP	55	0	1
TAP	55	96	1
TAP	55	192	0
TAP	55	192	1
TAP	56	0	0
TAP	56	96	0
TAP	56	192	1
TAP	56	288	1
TAP	57	0	2
TAP	57	96	2
TAP	57	192	2
TAP	57	192	3
TAP	58	0	4
TAP	58	96	4
TAP	58	192	5
TAP	58	288	5
TAP	59	0	6
TAP	59	96	6
TAP	59	192	6
TAP	59	192	7
BRK	60	0	6
TAP	60	96	6
TAP	60	192	5
TAP	60	288	5
TAP	61	0	3
TAP	61	0	4
TAP	61	96	3
TAP	61	96	4
TAP	61	192	3
TAP	61	192	4
TAP	62	0	2
TAP	62	96	2
TAP	62	192	1
TAP	62	288	1
TAP	63	0	0
TAP	63	0	7
TAP	63	96	0
TAP	63	96	7
TAP	63	192	0
TAP	63	192	7
TAP	64	0	1
TAP	64	96	1
TAP	64	192	2
TAP	64	288	2
TAP	65	0	3
TAP	65	0	4
TAP	65	96	3
TAP	65	96	4
TAP	65	192	3
TAP	65	192	4
TAP	66	0	5
TAP	66	96	5
TAP	66	192	6
TAP	66	288	6
TAP	67	0	0
TAP	67	0	7
TAP	67	96	0
TAP	67	96	7
TAP	67	192	0
TAP	67	192	7
BRK	68	0	6
TAP	68	96	6
TAP	68	192	5
TAP	68	288	5
TAP	69	0	4
TAP	69	96	4
TAP	69	192	3
TAP	69	288	3
TAP	70	0	2
TAP	70	96	2
TAP	70	192	1
TAP	70	288	1
TAP	71	0	0
TAP	71	0	7
TAP	71	96	0
TAP	71	96	7
TAP	71	192	0
TAP	71	192	7
TAP	72	0	1
TAP	72	96	1
TAP	72	192	2
TAP	72	288	2
TAP	73	0	3
TAP	73	96	3
TAP	73	192	4
TAP	73	288	4
TAP	74	0	5
TAP	74	96	5
TAP	74	192	6
TAP	74	288	6
TAP	75	0	0
TAP	75	0	7
TAP	75	96	0
TAP	75	96	7
TAP	75	192	0
TAP	75	192	7
BRK	76	0	0
BRK	76	0	7

T_REC_TAP	203
T_REC_BRK	7
T_REC_XTP	0
T_REC_HLD	10
T_REC_XHO	0
T_REC_STR	4
T_REC_BST	0
T_REC_XST	0
T_REC_TTP	0
T_REC_THO	0
T_REC_SLD	4
T_REC_ALL	228
T_NUM_TAP	207
T_NUM_BRK	7
T_NUM_HLD	10
T_NUM_SLD	4
T_NUM_ALL	228
T_JUDGE_TAP	214
T_JUDGE_HLD	48
T_JUDGE_SLD	4
T_JUDGE_ALL	266
TTM_EACHPAIRS	32
TTM_SCR_TAP	103500
TTM_SCR_BRK	18200
TTM_SCR_HLD	10000
TTM_SCR_SLD	6000
TTM_SCR_ALL	137700
TTM_SCR_S	132900
TTM_SCR_SS	137000
TTM_RAT_ACV	10051

