VERSION	0.00.00	1.03.00
FES_MODE	0
BPM_DEF	125.000	125.000	125.000	125.000
MET_DEF	4	4
RESOLUTION	384
CLK_DEF	384
COMPATIBLE_CODE	MA2

BPM	0	0	125.000

STR	2	0	3
SCL	2	0	3	96	192	4
STR	2	0	4
SCR	2	0	4	96	192	3
TAP	3	0	4
TAP	3	0	6
TAP	3	64	2
TAP	3	64	5
TAP	3	128	1
TAP	3	128	3
STR	3	192	0
SI_	3	192	0	96	32	3
STR	3	192	7
SI_	3	192	7	96	32	4
BRK	3	288	0
BRK	3	288	7
TAP	4	0	1
STR	4	0	6
SCL	4	0	6	96	32	3
TAP	4	64	6
TAP	4	96	7
STR	4	192	1
SCR	4	192	1	96	32	4
TAP	4	192	6
TAP	4	256	1
TAP	4	288	0
TAP	5	0	1
STR	5	0	6
SCL	5	0	6	96	32	3
TAP	5	64	6
TAP	5	96	7
STR	5	192	1
SCR	5	192	1	96	32	4
TAP	5	192	6
TAP	5	256	1
TAP	5	288	0
TAP	6	0	3
TAP	6	0	7
HLD	6	192	2	64
HLD	6	192	6	64
HLD	6	288	0	64
HLD	6	288	4	64
TAP	7	0	6
STR	7	0	7
SXL	7	0	7	96	32	1
TAP	7	64	4
TAP	7	96	4
TAP	7	192	2
STR	7	192	3
SXL	7	192	3	96	32	5
TAP	7	256	0
TAP	7	288	0
TAP	8	0	0
TAP	8	0	4
HLD	8	192	1	64
HLD	8	192	5	64
HLD	8	288	3	64
HLD	8	288	7	64
STR	9	0	4
SXR	9	0	4	96	32	2
TAP	9	0	5
TAP	9	64	7
TAP	9	96	7
STR	9	192	0
SXR	9	192	0	96	32	6
TAP	9	192	1
TAP	9	256	3
TAP	9	288	3
TAP	10	0	3
TAP	10	0	7
TAP	10	64	5
TAP	10	96	4
TAP	10	128	6
TAP	10	160	3
STR	10	192	7
SCL	10	192	7	96	32	4
TAP	10	224	0
TAP	10	256	1
TAP	10	288	2
STR	11	0	0
SI_	11	0	0	96	32	4
TAP	11	0	5
TAP	11	32	1
TAP	11	64	2
TAP	11	96	0
TAP	11	96	3
TAP	11	192	2
STR	11	192	7
SI_	11	192	7	96	32	3
TAP	11	224	6
TAP	11	256	5
TAP	11	288	4
TAP	11	288	7
TAP	12	0	0
TAP	12	0	4
TAP	12	64	2
TAP	12	96	3
TAP	12	128	1
TAP	12	160	4
STR	12	192	0
SCR	12	192	0	96	32	3
TAP	12	224	7
TAP	12	256	6
TAP	12	288	5
TAP	13	0	2
STR	13	0	7
SI_	13	0	7	96	32	3
TAP	13	32	6
TAP	13	64	5
TAP	13	96	4
TAP	13	96	7
STR	13	192	0
SI_	13	192	0	96	32	4
TAP	13	192	5
TAP	13	224	1
TAP	13	256	2
TAP	13	288	0
TAP	13	288	3
STR	14	0	3
SCL	14	0	3	96	32	0
TAP	14	64	5
STR	14	96	5
SCR	14	96	5	96	32	0
TAP	14	160	4
STR	14	192	4
SF_	14	192	4	96	32	0
BRK	14	288	4
HLD	15	0	6	48
TAP	15	48	7
TAP	15	64	6
TAP	15	96	0
TAP	15	96	5
TAP	15	160	1
HLD	15	192	1	48
TAP	15	240	0
TAP	15	256	1
TAP	15	288	2
TAP	15	288	7
STR	16	0	4
SCR	16	0	4	96	32	7
TAP	16	64	2
STR	16	96	2
SCL	16	96	2	96	32	7
TAP	16	160	3
STR	16	192	3
SF_	16	192	3	96	32	7
BRK	16	288	3
HLD	17	0	1	48
TAP	17	48	0
TAP	17	64	1
TAP	17	96	2
TAP	17	96	7
TAP	17	160	6
TAP	17	192	2
TAP	17	192	6
TAP	17	224	1
TAP	17	224	5
TAP	17	256	0
TAP	17	256	4
TAP	17	288	3
TAP	17	288	7
HLD	18	0	2	96
TAP	18	64	3
HLD	18	96	3	96
TAP	18	160	4
HLD	18	192	4	96
TAP	18	256	5
HLD	18	288	5	96
TAP	18	352	6
HLD	19	0	6	96
TAP	19	64	7
STR	19	96	7
SXL	19	96	7	96	128	3
SXR	19	96	7	96	128	3
TAP	20	0	1
TAP	20	0	4
TAP	20	64	5
TAP	20	96	3
TAP	20	96	6
TAP	20	160	2
STR	20	192	1
SI_	20	192	1	96	32	6
STR	20	192	5
SI_	20	192	5	96	32	2
TAP	21	0	0
TAP	21	0	5
TAP	21	64	1
TAP	21	96	2
TAP	21	96	7
TAP	21	160	6
TAP	21	192	0
STR	21	192	5
SI_	21	192	5	96	32	2
SCL	21	192	5	96	32	2
TAP	22	0	0
TAP	22	0	2
TAP	22	64	6
TAP	22	96	5
TAP	22	96	7
TAP	22	160	1
TAP	22	192	0
TAP	22	192	2
TAP	22	224	7
TAP	22	256	0
STR	22	288	0
SCR	22	288	0	96	96	3
TAP	22	288	7
STR	23	0	3
SSR	23	0	3	96	96	7
STR	23	96	7
SCL	23	96	7	96	96	4
TAP	23	192	4
BRK	23	288	0
STR	24	0	5
SI_	24	0	5	96	32	3
TAP	24	64	5
STR	24	96	6
SI_	24	96	6	96	32	2
TAP	24	160	6
STR	24	192	7
SI_	24	192	7	96	32	3
TAP	24	256	7
STR	24	288	0
SI_	24	288	0	96	32	4
TAP	24	352	0
STR	25	0	1
SI_	25	0	1	96	32	5
TAP	25	64	1
STR	25	96	2
SI_	25	96	2	96	32	4
TAP	25	160	2
STR	25	192	7
SF_	25	192	7	96	32	3
BRK	25	288	7
STR	26	0	1
SI_	26	0	1	96	32	3
TAP	26	64	1
STR	26	96	0
SI_	26	96	0	96	32	4
TAP	26	160	0
STR	26	192	7
SI_	26	192	7	96	32	3
TAP	26	256	7
STR	26	288	6
SI_	26	288	6	96	32	4
TAP	26	352	6
TAP	27	0	0
TAP	27	32	1
TAP	27	64	2
TAP	27	96	0
HLD	27	96	3	96
TAP	27	192	7
TAP	27	224	6
TAP	27	256	5
TAP	27	288	4
TAP	27	288	7
HLD	28	0	3	64
TAP	28	0	5
TAP	28	64	4
TAP	28	96	1
HLD	28	96	3	64
TAP	28	160	2
HLD	28	192	3	64
TAP	28	192	6
TAP	28	256	4
TAP	28	288	0
HLD	28	288	3	64
TAP	28	352	2
STR	29	0	3
SCL	29	0	3	96	40	7
TAP	29	0	7
TAP	29	32	6
TAP	29	64	5
TAP	29	96	4
TAP	29	160	4
TAP	29	192	0
STR	29	192	4
SCR	29	192	4	96	40	0
TAP	29	224	1
TAP	29	256	2
TAP	29	288	3
TAP	30	0	2
HLD	30	0	4	64
TAP	30	64	3
HLD	30	96	4	64
TAP	30	96	6
TAP	30	160	5
TAP	30	192	1
HLD	30	192	4	64
TAP	30	256	3
HLD	30	288	4	64
TAP	30	288	7
TAP	30	352	5
TAP	31	0	0
STR	31	0	4
SCR	31	0	4	96	40	0
TAP	31	32	1
TAP	31	64	2
TAP	31	96	3
TAP	31	160	3
STR	31	192	3
SCL	31	192	3	96	40	7
TAP	31	192	7
TAP	31	224	6
TAP	31	256	5
TAP	31	288	4
TAP	32	0	1
TAP	32	0	5
HLD	32	64	1	96
HLD	32	64	5	96
TAP	32	192	0
TAP	32	192	2
TAP	32	224	0
TAP	32	224	2
TAP	32	288	4
TAP	32	288	5
TAP	33	0	2
TAP	33	0	6
HLD	33	64	2	96
HLD	33	64	6	96
TAP	33	192	5
TAP	33	192	7
TAP	33	224	5
TAP	33	224	7
TAP	33	288	2
TAP	33	288	3
TAP	34	0	6
TAP	34	0	7
HLD	34	64	1	96
HLD	34	64	2	96
TAP	34	192	0
TAP	34	192	3
TAP	34	224	0
TAP	34	224	3
TAP	34	288	4
TAP	34	288	5
TAP	35	0	0
TAP	35	0	1
HLD	35	64	5	96
HLD	35	64	6	96
TAP	35	192	4
TAP	35	192	7
TAP	35	224	4
TAP	35	224	7
TAP	35	288	2
TAP	35	288	3
TAP	36	0	5
BRK	36	0	7
TAP	36	64	4
TAP	36	64	6
TAP	36	128	3
TAP	36	128	5
BRK	36	192	2
TAP	36	192	4
TAP	36	256	1
TAP	36	256	3
TAP	36	320	0
TAP	36	320	2
TAP	37	0	0
HLD	37	0	7	96
TAP	37	64	5
HLD	37	96	5	96
TAP	37	160	2
HLD	37	192	2	96
TAP	37	256	0
TAP	37	288	0
TAP	38	0	1
BRK	38	0	3
TAP	38	64	0
TAP	38	64	2
TAP	38	128	1
TAP	38	128	7
TAP	38	192	0
BRK	38	192	6
TAP	38	256	5
TAP	38	256	7
TAP	38	320	4
TAP	38	320	6
STR	39	0	3
SCL	39	0	3	96	32	0
STR	39	0	4
SCR	39	0	4	96	32	7
BST	39	192	2
SI_	39	192	2	96	32	7
BST	39	192	6
SI_	39	192	6	96	32	3
TAP	39	288	2
TAP	39	288	6
STR	40	0	0
SCR	40	0	0	96	96	4
TAP	40	64	4
STR	40	96	4
SCR	40	96	4	96	96	0
TAP	40	160	0
STR	40	192	0
SCR	40	192	0	96	96	4
TAP	40	256	4
STR	40	288	4
SCR	40	288	4	96	96	0
TAP	40	352	0
TAP	41	0	0
TAP	41	64	4
TAP	41	96	4
TAP	41	128	5
TAP	41	160	6
STR	41	192	3
SI_	41	192	3	96	32	7
TAP	41	192	7
TAP	41	288	3
TAP	41	288	4
STR	42	0	1
SCR	42	0	1	96	40	4
STR	42	0	4
SCR	42	0	4	96	40	7
TAP	42	96	1
TAP	42	96	4
STR	42	192	3
SCL	42	192	3	96	40	0
STR	42	192	6
SCL	42	192	6	96	40	3
TAP	42	288	3
TAP	42	288	6
HLD	43	0	5	96
TAP	43	32	4
TAP	43	64	4
HLD	43	96	2	96
TAP	43	128	3
TAP	43	160	3
TAP	43	192	4
TAP	43	224	3
TAP	43	256	4
BRK	43	288	1
BRK	43	288	6
STR	44	0	7
SCL	44	0	7	96	96	3
TAP	44	64	3
STR	44	96	3
SCL	44	96	3	96	96	7
TAP	44	160	7
STR	44	192	7
SCL	44	192	7	96	96	3
TAP	44	256	3
STR	44	288	3
SCL	44	288	3	96	96	7
TAP	44	352	7
TAP	45	0	7
TAP	45	64	3
TAP	45	96	3
TAP	45	128	2
TAP	45	160	1
TAP	45	192	0
STR	45	192	4
SI_	45	192	4	96	32	0
TAP	45	288	3
TAP	45	288	4
STR	46	0	6
SCL	46	0	6	96	32	3
TAP	46	32	7
TAP	46	64	7
TAP	46	96	0
BRK	46	96	6
STR	46	192	1
SCR	46	192	1	96	32	4
TAP	46	224	0
TAP	46	256	0
BRK	46	288	1
TAP	46	288	7
TAP	47	0	3
STR	47	0	7
SCR	47	0	7	96	48	2
TAP	47	64	3
TAP	47	96	3
STR	47	96	7
SCL	47	96	7	96	48	4
TAP	47	160	3
TAP	47	192	3
STR	47	192	7
SCR	47	192	7	96	48	2
TAP	47	256	3
TAP	47	288	3
STR	47	288	7
SCL	47	288	7	96	48	4
TAP	47	352	3
TAP	48	0	3
STR	48	0	7
SXL	48	0	7	96	144	2
TAP	48	96	6
TAP	48	128	5
TAP	48	160	4
HLD	48	192	3	96
BRK	48	288	7
STR	49	0	0
SCL	49	0	0	96	48	5
TAP	49	0	4
TAP	49	64	4
STR	49	96	0
SCR	49	96	0	96	48	3
TAP	49	96	4
TAP	49	160	4
STR	49	192	0
SCL	49	192	0	96	48	5
TAP	49	192	4
TAP	49	256	4
STR	49	288	0
SCR	49	288	0	96	48	3
TAP	49	288	4
TAP	49	352	4
STR	50	0	0
SXR	50	0	0	96	144	5
TAP	50	0	4
TAP	50	96	1
TAP	50	128	2
TAP	50	160	3
HLD	50	192	4	96
BRK	50	288	0
STR	51	0	3
SCL	51	0	3	96	32	1
STR	51	0	4
SUL	51	0	4	96	32	0
STR	51	96	3
SUR	51	96	3	96	32	7
STR	51	96	4
SCR	51	96	4	96	32	6
STR	51	192	3
SCL	51	192	3	96	32	1
STR	51	192	4
SUL	51	192	4	96	32	0
TAP	51	288	3
TAP	51	288	4
BRK	52	0	6
BRK	52	0	7
TAP	52	64	0
TAP	52	64	2
TAP	52	128	5
TAP	52	128	7
TAP	52	160	4
BRK	52	192	2
BRK	52	192	3
TAP	52	256	4
TAP	52	256	6
TAP	52	320	1
TAP	52	320	3
TAP	52	352	0
STR	53	0	6
SXR	53	0	6	96	144	3
TAP	53	0	7
TAP	53	96	7
TAP	53	128	0
TAP	53	160	1
HLD	53	192	2	96
TAP	53	288	1
TAP	54	0	0
STR	54	0	1
SXL	54	0	1	96	144	4
TAP	54	96	0
TAP	54	128	7
TAP	54	160	6
HLD	54	192	5	96
STR	54	288	7
SF_	54	288	7	96	32	3
BRK	55	0	7
BRK	55	192	1
BRK	55	192	5
TAP	55	256	6
TAP	55	256	7
TAP	55	320	0
TAP	55	320	1
BST	56	0	3
SUR	56	0	3	96	192	4
BST	56	0	4
SCR	56	0	4	96	192	3
TAP	57	0	5
TAP	57	0	7
TAP	57	32	4
TAP	57	64	3
TAP	57	64	5
TAP	57	96	2
TAP	57	128	1
TAP	57	160	0
TAP	57	160	2
TAP	57	192	3
TAP	57	224	2
TAP	57	224	4
TAP	57	256	5
TAP	57	288	6
TAP	57	320	0
BST	57	320	5
SXL	57	320	5	96	592	3
TAP	58	48	0
TAP	58	60	1
STR	58	72	2
SXR	58	72	2	96	456	4

T_REC_TAP	347
T_REC_BRK	23
T_REC_XTP	0
T_REC_HLD	42
T_REC_XHO	0
T_REC_STR	84
T_REC_BST	5
T_REC_XST	0
T_REC_TTP	0
T_REC_THO	0
T_REC_SLD	91
T_REC_ALL	592
T_NUM_TAP	431
T_NUM_BRK	28
T_NUM_HLD	42
T_NUM_SLD	91
T_NUM_ALL	592
T_JUDGE_TAP	459
T_JUDGE_HLD	81
T_JUDGE_SLD	91
T_JUDGE_ALL	631
TTM_EACHPAIRS	139
TTM_SCR_TAP	215500
TTM_SCR_BRK	72800
TTM_SCR_HLD	42000
TTM_SCR_SLD	136500
TTM_SCR_ALL	466800
TTM_SCR_S	450100
TTM_SCR_SS	464000
TTM_RAT_ACV	10060

