VERSION	0.00.00	1.03.00
FES_MODE	0
BPM_DEF	125.000	125.000	125.000	125.000
MET_DEF	4	4
RESOLUTION	384
CLK_DEF	384
COMPATIBLE_CODE	MA2

BPM	0	0	125.000

STR	2	0	0
SCR	2	0	0	96	96	3
STR	2	0	7
SCL	2	0	7	96	96	4
TAP	2	288	3
TAP	2	288	4
HLD	3	0	5	64
HLD	3	64	7	64
HLD	3	128	0	64
TAP	3	192	2
TAP	3	288	3
TAP	3	288	4
TAP	4	0	5
TAP	4	64	5
TAP	4	96	4
TAP	4	96	5
TAP	4	192	2
TAP	4	256	2
TAP	4	288	2
TAP	4	288	3
TAP	5	0	5
TAP	5	64	5
TAP	5	96	4
TAP	5	96	5
TAP	5	192	2
TAP	5	256	2
TAP	5	288	2
TAP	5	288	3
TAP	6	0	1
TAP	6	0	4
TAP	6	192	3
TAP	6	192	4
TAP	6	288	0
TAP	6	288	7
TAP	6	352	1
TAP	7	0	1
TAP	7	32	2
TAP	7	64	3
TAP	7	96	4
TAP	7	160	6
TAP	7	192	6
TAP	7	224	5
TAP	7	256	4
TAP	7	288	3
TAP	8	0	2
TAP	8	0	7
TAP	8	192	2
TAP	8	192	3
TAP	8	288	1
TAP	8	288	4
TAP	8	352	6
TAP	9	0	6
TAP	9	32	5
TAP	9	64	4
TAP	9	96	3
TAP	9	160	1
TAP	9	192	1
TAP	9	224	2
TAP	9	256	3
TAP	9	288	4
TAP	10	0	2
TAP	10	64	2
TAP	10	96	2
TAP	10	96	3
STR	10	192	4
SCL	10	192	4	96	48	1
TAP	10	192	5
TAP	11	0	7
TAP	11	64	7
TAP	11	96	0
TAP	11	96	6
TAP	11	160	0
TAP	11	192	0
TAP	11	256	0
TAP	11	288	1
TAP	11	288	7
TAP	12	0	5
TAP	12	64	5
TAP	12	96	4
TAP	12	96	5
TAP	12	192	2
STR	12	192	3
SCR	12	192	3	96	48	6
TAP	13	0	0
TAP	13	64	0
TAP	13	96	1
TAP	13	96	7
TAP	13	160	7
TAP	13	192	7
TAP	13	256	7
TAP	13	288	0
TAP	13	288	6
HLD	14	0	3	96
HLD	14	96	2	96
HLD	14	192	1	96
TAP	14	256	0
TAP	14	288	0
TAP	15	0	3
STR	15	0	5
SCR	15	0	5	96	48	0
STR	15	192	2
SCL	15	192	2	96	48	7
TAP	15	192	4
HLD	16	0	4	96
HLD	16	96	5	96
HLD	16	192	6	96
TAP	16	256	7
TAP	16	288	7
STR	17	0	2
SCL	17	0	2	96	48	7
TAP	17	0	4
TAP	17	192	3
STR	17	192	5
SCR	17	192	5	96	48	0
HLD	18	0	1	64
HLD	18	0	3	64
TAP	18	96	1
TAP	18	96	3
HLD	18	192	2	64
HLD	18	192	4	64
TAP	18	288	2
TAP	18	288	4
HLD	19	0	3	64
HLD	19	0	5	64
TAP	19	96	3
TAP	19	96	5
HLD	19	192	4	64
HLD	19	192	6	64
TAP	19	288	4
TAP	19	288	6
TAP	20	0	6
TAP	20	0	7
STR	20	96	5
SI_	20	96	5	96	96	2
STR	20	96	6
SI_	20	96	6	96	96	1
STR	21	0	1
SCR	21	0	1	96	48	3
STR	21	0	5
SCL	21	0	5	96	48	3
TAP	21	192	0
TAP	21	192	6
TAP	21	288	1
TAP	21	288	7
TAP	22	0	0
TAP	22	0	1
STR	22	96	1
SI_	22	96	1	96	96	6
STR	22	96	2
SI_	22	96	2	96	96	5
STR	23	0	3
SI_	23	0	3	96	48	0
TAP	23	0	4
TAP	23	192	3
STR	23	192	4
SI_	23	192	4	96	48	7
TAP	24	0	3
TAP	24	64	3
TAP	24	96	4
TAP	24	160	4
TAP	24	192	1
TAP	24	256	1
TAP	24	288	3
TAP	25	0	4
TAP	25	64	4
TAP	25	96	3
TAP	25	160	3
TAP	25	192	6
TAP	25	256	6
TAP	25	288	4
TAP	26	0	3
TAP	26	64	3
TAP	26	96	4
TAP	26	160	4
TAP	26	192	1
TAP	26	256	1
TAP	26	288	6
TAP	26	352	6
TAP	27	0	3
TAP	27	64	3
TAP	27	96	5
TAP	27	160	5
TAP	27	192	1
TAP	27	256	1
BRK	27	288	7
STR	28	0	1
SCR	28	0	1	96	48	4
STR	28	192	6
SUL	28	192	6	96	48	2
TAP	28	352	0
TAP	29	0	0
TAP	29	32	1
TAP	29	64	2
TAP	29	96	3
TAP	29	160	7
TAP	29	192	7
TAP	29	224	6
TAP	29	256	5
TAP	29	288	4
STR	30	0	5
SUR	30	0	5	96	48	1
STR	30	192	3
SCL	30	192	3	96	48	0
TAP	30	352	7
TAP	31	0	7
TAP	31	32	6
TAP	31	64	5
TAP	31	96	4
TAP	31	160	0
TAP	31	192	0
TAP	31	224	1
TAP	31	256	2
TAP	31	288	3
TAP	32	0	4
TAP	32	0	5
HLD	32	64	4	96
HLD	32	64	5	96
TAP	32	224	5
TAP	32	224	6
TAP	32	288	6
TAP	32	288	7
TAP	33	0	2
TAP	33	0	3
HLD	33	64	2	96
HLD	33	64	3	96
TAP	33	224	1
TAP	33	224	2
TAP	33	288	0
TAP	33	288	1
TAP	34	0	3
TAP	34	0	5
HLD	34	64	3	96
HLD	34	64	5	96
TAP	34	224	4
TAP	34	224	6
TAP	34	288	5
TAP	34	288	7
TAP	35	0	2
TAP	35	0	4
HLD	35	64	2	96
HLD	35	64	4	96
TAP	35	224	1
TAP	35	224	3
TAP	35	288	0
TAP	35	288	2
HLD	36	0	1	64
HLD	36	64	3	64
HLD	36	128	4	64
HLD	36	192	6	64
HLD	36	256	4	64
HLD	36	320	3	64
STR	37	0	1
SXR	37	0	1	96	192	6
HLD	38	0	6	64
HLD	38	64	4	64
HLD	38	128	3	64
HLD	38	192	1	64
HLD	38	256	3	64
HLD	38	320	4	64
TAP	39	0	6
TAP	39	96	3
TAP	39	96	4
BRK	39	192	1
BRK	39	192	6
TAP	40	0	2
STR	40	0	3
SCL	40	0	3	96	48	0
STR	40	192	4
SCR	40	192	4	96	48	7
TAP	40	192	5
TAP	41	0	2
STR	41	0	3
SCL	41	0	3	96	48	0
TAP	41	192	4
TAP	41	192	5
TAP	41	288	3
TAP	41	288	6
HLD	42	0	1	192
TAP	42	0	6
TAP	42	64	2
TAP	42	96	2
HLD	42	192	6	192
TAP	42	256	5
TAP	42	288	5
TAP	43	0	1
TAP	43	96	3
TAP	43	96	4
TAP	43	192	6
TAP	43	192	7
TAP	43	224	6
TAP	43	224	7
TAP	43	256	0
TAP	43	256	5
TAP	43	288	1
TAP	43	288	4
STR	44	0	4
SCR	44	0	4	96	48	7
TAP	44	0	5
TAP	44	192	2
STR	44	192	3
SCL	44	192	3	96	48	0
STR	45	0	4
SCR	45	0	4	96	48	7
TAP	45	0	5
TAP	45	192	2
TAP	45	192	3
TAP	45	288	1
TAP	45	288	4
TAP	46	0	0
TAP	46	0	7
TAP	46	96	3
TAP	46	96	4
TAP	46	160	3
TAP	46	160	4
TAP	46	192	3
TAP	46	192	4
BRK	46	288	0
BRK	46	288	7
STR	47	0	1
SCL	47	0	1	96	48	6
TAP	47	0	5
TAP	47	192	2
STR	47	192	6
SCR	47	192	6	96	48	1
STR	48	0	1
SCL	48	0	1	96	48	6
TAP	48	0	5
TAP	48	192	0
TAP	48	192	7
TAP	48	288	1
TAP	48	288	6
TAP	49	0	2
HLD	49	0	5	192
TAP	49	64	7
TAP	49	96	7
HLD	49	192	2	192
TAP	49	256	0
TAP	49	288	0
TAP	50	0	5
TAP	50	96	3
TAP	50	96	4
TAP	50	192	0
TAP	50	192	1
TAP	50	224	0
TAP	50	224	1
TAP	50	256	2
TAP	50	256	7
TAP	50	288	3
TAP	50	288	6
TAP	51	0	2
STR	51	0	6
SCR	51	0	6	96	48	1
STR	51	192	1
SCL	51	192	1	96	48	6
TAP	51	192	5
TAP	52	0	4
TAP	52	0	5
TAP	52	64	5
TAP	52	64	6
TAP	52	128	6
TAP	52	128	7
TAP	52	192	2
TAP	52	192	3
TAP	52	256	1
TAP	52	256	2
TAP	52	320	0
TAP	52	320	1
HLD	53	0	2	96
STR	53	0	3
SCR	53	0	3	96	48	6
TAP	53	192	4
TAP	53	192	5
TAP	53	288	1
TAP	53	288	4
STR	54	0	4
SCL	54	0	4	96	48	1
HLD	54	0	5	96
TAP	54	192	2
TAP	54	192	3
TAP	54	288	3
TAP	54	288	6
TAP	55	0	4
TAP	55	64	5
TAP	55	128	6
TAP	55	192	3
HLD	55	192	7	192
TAP	55	256	2
TAP	55	320	1
STR	56	0	0
SCR	56	0	0	96	192	7
TAP	57	0	6
TAP	57	0	7
TAP	57	64	0
TAP	57	64	5
TAP	57	160	0
TAP	57	160	1
TAP	57	224	2
TAP	57	224	7
HLD	57	320	3	640
STR	57	320	4
SCL	57	320	4	96	544	5

T_REC_TAP	279
T_REC_BRK	5
T_REC_XTP	0
T_REC_HLD	45
T_REC_XHO	0
T_REC_STR	36
T_REC_BST	0
T_REC_XST	0
T_REC_TTP	0
T_REC_THO	0
T_REC_SLD	36
T_REC_ALL	401
T_NUM_TAP	315
T_NUM_BRK	5
T_NUM_HLD	45
T_NUM_SLD	36
T_NUM_ALL	401
T_JUDGE_TAP	320
T_JUDGE_HLD	112
T_JUDGE_SLD	36
T_JUDGE_ALL	468
TTM_EACHPAIRS	112
TTM_SCR_TAP	157500
TTM_SCR_BRK	13000
TTM_SCR_HLD	45000
TTM_SCR_SLD	54000
TTM_SCR_ALL	269500
TTM_SCR_S	260950
TTM_SCR_SS	269000
TTM_RAT_ACV	10018

